2 сезон

iTunes

1 сезон

1

iTunes

iTunes

iTunes

1 сезон

RePack

30

ИГРА 18+

pack

ВАЖНО

!!Акция!!

Alien_RageХит недели

RePack

MK11
pack

Забери бонус

RePack

jed

!!Акция!!

Alien_Rage

RePack

fifa19

RePack

Assassins Creed: Odyssey

RePack

NEED FOR SPEED™ PAYBACK

4 сезон

9 сезон

Бесстыжие 9 сезон

Все сериалы

все сериалы на PB.wtf

RePack

FAR CRY 5
  

История с привидениями / Ghost Story (Джон Ирвин) [1981, ужасы, триллер, драма, BDRip 1080p by msltel] MVO pb.wtf

История с привидениями через торрент pb.wtf

Размер: 13.17 GB | Добавлен: 4 года 10 мес. назад | Торрент скачан:9 раз
Скачать  

08-12-2015 09:25 История с привидениями Скачать торрент  

Название: История с привидениями
Оригинальное название: Ghost Story
Год выпуска: 1981
Страна: США
Жанр: ужасы, триллер, драма
Продолжительность: 01:50:47
Перевод: профессиональный многоголосый

Режиссёр: Джон Ирвин

В ролях: Фред Астер, Мелвин Дуглас, Дуглас Фербенкс мл., Джон Хаусмен, Крейг Уоссон, Патриция Нил, Элис Крайдж, Жаклин Брукс, Мигель Фернандес, Лэнс Холкомб, Марк Чамберлен, Тим Чоут, Курт Джонсон, Кен Олин, Брэд Салливан, Гай Бойд, Майкл О`Нилл, Роберт Барр, Хелена Кэрролл, Робин Кертис, Бреон Горман, Джеймс Грин, Кэгл Д. Грин, Кира Карлтон, Рут Хант, Дебора Оффнер, Вирджиния Бингхэм, Уильям Э. Конуэй, Терренс Марио Карнес, Эдвард Ф. Диллон, Хью Хайрс, Рэймонд Дж. Куинн, Бетти Лоу

Описание: Что требуется для того, чтобы напугаться по-настоящему? Мрачный дом в Новой Англии, тёмная ночь, завывание ветра и четыре человека из так называемого «Общества Похлёбки», где принято развлекать друг друга страшными историями. Но на этот раз любителям острых ощущений предстоит столкнуться с реальным ужасом, от которого нет спасения, ужасом, пришедшим из прошлого, чтобы забрать их жизни...



Качество: BDRip 1080p Сравнение с исходником
Формат: MKV
Видео: MPEG-4 AVC, 13.7 Mбит/с, 1920x1042, 23,976 кадра/с
Аудио 1: русский, DTS, 1509 kbps, 2 ch, 48 kHz [профессиональный многоголосый, R5]
Аудио 2: английский, DTS, 1509 kbps, 2 ch, 48 kHz [оригинал]
Субтитры: английские
Общее
Уникальный идентификатор : 243876232249228070674273237447270507520 (0xB778DA955820EAEEB8EFA2AF58ECA400)
Полное имя : D:\Video\История с привидениями.1981.BDRip.1080p.mkv
Формат : Matroska
Версия формата : Version 4 / Version 2
Размер файла : 13,2 Гбайт
Продолжительность : 1 ч. 50 м.
Общий поток : 17,0 Мбит/сек
Дата кодирования : UTC 2015-12-07 08:13:59
Программа кодирования : mkvmerge v8.2.0 ('World of Adventure') 64bit
Библиотека кодирования : libebml v1.3.1 + libmatroska v1.4.2
DURATION : 01:49:50.291000000
NUMBER_OF_FRAMES : 1217
NUMBER_OF_BYTES : 34799
_STATISTICS_WRITING_APP : mkvmerge v8.2.0 ('World of Adventure') 64bit
_STATISTICS_WRITING_DATE_UTC : 2015-12-07 08:13:59
_STATISTICS_TAGS : BPS DURATION NUMBER_OF_FRAMES NUMBER_OF_BYTES

Видео
Идентификатор : 1
Формат : AVC
Формат/Информация : Advanced Video Codec
Профиль формата : High@L4.1
Параметр CABAC формата : Да
Параметр ReFrames формата : 4 кадра
Идентификатор кодека : V_MPEG4/ISO/AVC
Продолжительность : 1 ч. 50 м.
Битрейт : 13,7 Мбит/сек
Ширина : 1920 пикселей
Высота : 1042 пикселя
Соотношение сторон : 1,85:1
Режим частоты кадров : Постоянный
Частота кадров : 23,976 кадра/сек
Цветовое пространство : YUV
Субдискретизация насыщенности : 4:2:0
Битовая глубина : 8 бит
Тип развёртки : Прогрессивная
Бит/(Пиксели*Кадры) : 0.285
Размер потока : 10,6 Гбайт (80%)
Заголовок : BDRip by STarankov
Библиотека кодирования : x264 core 146 r2538 121396c
Настройки программы : cabac=1 / ref=4 / deblock=1:-3:-3 / analyse=0x3:0x113 / me=umh / subme=10 / psy=1 / psy_rd=1.00:0.15 / mixed_ref=1 / me_range=32 / chroma_me=1 / trellis=2 / 8x8dct=1 / cqm=0 / deadzone=21,11 / fast_pskip=1 / chroma_qp_offset=-3 / threads=6 / lookahead_threads=1 / sliced_threads=0 / nr=0 / decimate=1 / interlaced=0 / bluray_compat=0 / constrained_intra=0 / bframes=12 / b_pyramid=2 / b_adapt=2 / b_bias=0 / direct=1 / weightb=1 / open_gop=0 / weightp=2 / keyint=230 / keyint_min=23 / scenecut=40 / intra_refresh=0 / rc_lookahead=40 / rc=crf / mbtree=0 / crf=19.0 / qcomp=0.60 / qpmin=0 / qpmax=69 / qpstep=4 / vbv_maxrate=40000 / vbv_bufsize=50000 / crf_max=0.0 / nal_hrd=none / filler=0 / ip_ratio=1.40 / pb_ratio=1.30 / aq=1:1.00
Язык : English
Default : Да
Forced : Нет
DURATION : 01:50:46.640000000
NUMBER_OF_FRAMES : 159360
NUMBER_OF_BYTES : 11628722668
_STATISTICS_WRITING_APP : mkvmerge v8.2.0 ('World of Adventure') 64bit
_STATISTICS_WRITING_DATE_UTC : 2015-12-07 08:13:59
_STATISTICS_TAGS : BPS DURATION NUMBER_OF_FRAMES NUMBER_OF_BYTES

Аудио #1
Идентификатор : 2
Формат : DTS
Формат/Информация : Digital Theater Systems
Режим : 16
Параметр Endianness формата : Big
Идентификатор кодека : A_DTS
Продолжительность : 1 ч. 50 м.
Вид битрейта : Постоянный
Битрейт : 1509 Кбит/сек
Каналы : 2 канала
Расположение каналов : Front: L R
Частота : 48,0 КГц
Битовая глубина : 24 бит
Метод сжатия : С потерями
Размер потока : 1,17 Гбайт (9%)
Заголовок : MVO (R5)
Язык : Russian
Default : Да
Forced : Нет

Аудио #2
Идентификатор : 3
Формат : DTS
Формат/Информация : Digital Theater Systems
Режим : 16
Параметр Endianness формата : Big
Идентификатор кодека : A_DTS
Продолжительность : 1 ч. 50 м.
Вид битрейта : Постоянный
Битрейт : 1509 Кбит/сек
Каналы : 2 канала
Расположение каналов : Front: L R
Частота : 48,0 КГц
Битовая глубина : 24 бит
Метод сжатия : С потерями
Размер потока : 1,17 Гбайт (9%)
Заголовок : Original
Язык : English
Default : Нет
Forced : Нет

Текст
Идентификатор : 4
Формат : UTF-8
Идентификатор кодека : S_TEXT/UTF8
Идентификатор кодека/Информация : UTF-8 Plain Text
Заголовок : английский
Язык : English
Default : Нет
Forced : Нет
pb.wtf



Скачать История с привидениями через торрент http://s017.radikal.ru/i400/1512/52/9c56686e4d67.png Скачать фильм История с привидениями через торрент бесплантно в хорошем качестве Описание: Что требуется для того, чтобы напугаться по-настоящему? Мрачный дом в Новой Англии, тёмная ночь, завывание ветра и четыре ... 7 10 3
Info! Золотая раздача, скачанное не засчитывается.
Торрент: Зарегистрирован [2015-12-08 09:25] · скачан: 9 раз
Статус: √ проверено
Размер: 13.17 GB
Как cкачать? Как скачать История с привидениями через торрент | qTorrent

% Раздел Тема Автор DL S | L
R.G. Resident & PiratVoice - Фильмы, Видео [ 2.6 GB ] История с привидениями / Ghost Story [1981 BDRip-AVC R.G.Resident] MVO schultz Скачать
1 | 0
Фильмы [HD 720p, 1080p] (Хороший звук DUB, MVO) [ 4.29 GB ] История с привидениями / Ghost Story [1981 BDRip 720p by msltel] MVO msltel Скачать
1 | 0
Фильмы до 2000 г. [ 2.33 GB ] История с привидениями / Ghost Story [1981 BDRip AVC by msltel] MVO msltel Скачать
1 | 0

28-11-2019 20:33  

Отключить всю рекламу на сайте

    Дорогой пользователь! Огромная просьба, поблагодарите релизера, оцените раздачу и оставьте свои комментарий, если Вы скачали История с привидениями через торрент бесплатно! Внесите свою лепту в развитие PiratBit!
    Комментировать посты могут только пользователи прошедшие не сложную регистрацию
    Показать сообщения:    

    История с привидениями через торрент
    Скачать бесплатно История с привидениями
    История с привидениями скачать торрент
    История с привидениями смотреть онлайн
    Cкачать фильм История с привидениями бесплатно
    История с привидениями скачать торрент в хорошем качестве
    История с привидениями смотреть онлайн бесплатно в хорошем качестве


    Вы не можете начинать темы
    Вы не можете отвечать на сообщения
    Вы не можете редактировать свои сообщения
    Вы не можете удалять свои сообщения
    Вы не можете голосовать в опросах
    Вы не можете прикреплять файлы к сообщениям
    Вы можете скачивать файлы