новый адрес
Ссылка на приватное зеркало всего за 1$. Внимание количество ограничено!!!

iTunes

1+1

iTunes

мы

iTunes

1

iTunes

Чернобыль

iTunes

Ральф против интернета

Лицензия

ПШазам

Лицензия

Оно 2

Лицензия

30
pack

Вам бонус

ВАЖНО

!!Акция!!

Alien_RageХит недели

RePack

Resident Evil 21

ИГРА 18+

pack

RePack

jed

!!Акция!!

Alien_Rage

RePack

fifa19

RePack

Assassins Creed: Odyssey

RePack

NEED FOR SPEED™ PAYBACK

3 сезон

9 сезон

Бесстыжие 9 сезон

Все сериалы

все сериалы на PB.wtf

RePack

FAR CRY 5
Ребята, катастрофически не хватает 1900р. для оплаты серверов за Октябрь (всвязи с блокировками трафик упал в 3 раза), 1-2р., выручайте.
  

Перед рассветом (Ярополк Лапшин) [1989, СССР, боевик, военный, DVDRip от AVP Studio] pb.wtf

Перед рассветом через торрент pb.wtf

Размер: 744 MB | Добавлен: 3 года 11 мес. назад | Торрент скачан:47 раз
Скачать  

08-12-2015 17:26 Перед рассветом Скачать торрент  

Перед рассветом
Страна: СССР
Производство: Свердловская к/с

Жанр: боевик, военный
Год выпуска: 1989
Продолжительность: 01:20:10

Перевод: Не требуется
Cубтитры: нет
Оригинальная аудиодорожка: русский

Режиссер: Ярополк Лапшин

В ролях:
Евгений Миронов, Валерий Рыжаков, Александр Панкратов-Чёрный, Олег Корчиков, Константин Степанков, Вячеслав Кириличев, Раиса Рязанова, Александр Ольков, Игорь Варпа, Игорь Головин...
Полный список актёров

Описание:
Начало Великой Отечественной войны. Молодой лейтенант НКВД (Евгений Миронов) сопровождает в тыл группу политзаключенных, а вместе с ними и просто уголовников. По пути эшелон попадает под обстрел. В живых остаются трое: лейтенант, уголовник Усатый (Александр Панкратов-Черный) и политзаключённый...

Источник: DVD5 R5
Качество видео: DVDRip
Формат видео: AVI

Видео: 640x480 (4:3), 25 fps, XviD ~ 1160 kbps avg, 0.151 bit/pixel
Аудио: 48 kHz, MP3 2.0, 128 kbps

Раздача от:
Общее
Полное имя : Pered.rassvetom.1989.DVDRip-745_[New-team]_by_AVP_Studio.avi
Формат : AVI
Формат/Информация : Audio Video Interleave
Размер файла : 744 Мбайт
Продолжительность : 1 ч. 20 м.
Общий поток : 1298 Кбит/сек
Программа кодирования : VirtualDubMod 1.5.10.3 | www.virtualdub-fr.org || (build 2550/release)
Библиотека кодирования : VirtualDubMod build 2550/release

Видео
Идентификатор : 0
Формат : MPEG-4 Visual
Профиль формата : Advanced Simple@L5
Параметр BVOP формата : 1
Параметр QPel формата : Нет
Параметр GMC формата : Без точки перехода
Параметр матрицы формата : Выборочная
Идентификатор кодека : XVID
Идентификатор кодека/Подсказка : XviD
Продолжительность : 1 ч. 20 м.
Битрейт : 1160 Кбит/сек
Ширина : 640 пикселей
Высота : 480 пикселей
Соотношение сторон : 4:3
Частота кадров : 25,000 кадров/сек
Цветовое пространство : YUV
Субдискретизация насыщенности : 4:2:0
Битовая глубина : 8 бит
Тип развёртки : Прогрессивная
Метод сжатия : С потерями
Бит/(Пиксели*Кадры) : 0.151
Размер потока : 665 Мбайт (89%)
Библиотека кодирования : XviD 73

Аудио
Идентификатор : 1
Формат : MPEG Audio
Версия формата : Version 1
Профиль формата : Layer 3
Идентификатор кодека : 55
Идентификатор кодека/Подсказка : MP3
Продолжительность : 1 ч. 20 м.
Вид битрейта : Постоянный
Битрейт : 128 Кбит/сек
Каналы : 2 канала
Частота : 48,0 КГц
Метод сжатия : С потерями
Размер потока : 73,4 Мбайт (10%)
Выравнивание : Соединение по промежуткам
Продолжительность промежутка : 40 мс. (1,00 видеокадр)
Время предзагрузки промежутка : 504 мс.
Библиотека кодирования : LAME3.99r
Настройки программы : -m s -V 4 -q 2 -lowpass 17 -b 128
pb.wtf



Скачать Перед рассветом через торрент http://s017.radikal.ru/i405/1512/6b/4b9f8cc84cfd.png Скачать фильм Перед рассветом через торрент бесплантно в хорошем качестве Описание:Начало Великой Отечественной войны. Молодой лейтенант НКВД (Евгений Миронов) сопровождает в тыл группу политзаключенных, а вместе ... 10 10 1
Торрент: Зарегистрирован [2015-12-08 17:26] · скачан: 47 раз
Статус: √ проверено
Размер: 744 MB
Как cкачать? Как скачать Перед рассветом через торрент | qTorrent

% Раздел Тема Автор DL S | L
Металл (mp3) [ 83 MB ] Сознание - Перед рассветом 2018 / MP3 / 320 kbps / Symphonic Metal bober100 Скачать
2 | 0
Кино СССР [ 1.09 GB ] Перед рассветом [1989 СССР военный DVDRip-AVC от AVP Studio] AVP Studio Скачать
1 | 0
Кино СССР [ 1.09 GB ] Перед рассветом [1989 СССР военный DVDRip от AVP Studio] AVP Studio Скачать
1 | 0
Кино СССР [ 1.37 GB ] Перед рассветом [1989 военный DVDRip] lug30 Скачать
1 | 0
T Фильмы 2011 [ 1.37 GB ] Перед рассветом / Avant l'aube [2011 HDRip] makarevich Скачать
1 | 0


>> Регистрируемся здесь <<






Отзывы и комментарии о схеме читаем и пишем здесь: ---> Отзывы и комментарии о схеме

Новые благодарочки в телеграм довольных пользователей:
скриншот   скриншот   скриншот   скриншот   скриншот
    Дорогой пользователь! Огромная просьба, поблагодарите релизера, оцените раздачу и оставьте свои комментарий, если Вы скачали Перед рассветом через торрент бесплатно! Внесите свою лепту в развитие PiratBit!
    Комментировать посты могут только пользователи прошедшие не сложную регистрацию
    Показать сообщения:    

    Перед рассветом через торрент
    Скачать бесплатно Перед рассветом
    Перед рассветом скачать торрент
    Перед рассветом смотреть онлайн
    Cкачать фильм Перед рассветом бесплатно
    Перед рассветом скачать торрент в хорошем качестве
    Перед рассветом смотреть онлайн бесплатно в хорошем качестве


    Вы не можете начинать темы
    Вы не можете отвечать на сообщения
    Вы не можете редактировать свои сообщения
    Вы не можете удалять свои сообщения
    Вы не можете голосовать в опросах
    Вы не можете прикреплять файлы к сообщениям
    Вы можете скачивать файлы