Ссылка на приватное зеркало всего за 1$. Внимание количество ограничено!!!

OK

1+1

iTunes

мы

OK

1

WEB-DLRip

Джокер

Пифагор

Ведьмак / The Witcher сериал

Лицензия

ПШазам

ОК

Оно 2

iTunes

30
pack

Вам бонус

ВАЖНО

!!Акция!!

Alien_RageХит недели

RePack

Resident Evil 21

ИГРА 18+

pack

RePack

jed

RePack

fifa19

RePack

Assassins Creed: Odyssey

RePack

NEED FOR SPEED™ PAYBACK

4 сезон

9 сезон

Бесстыжие 9 сезон

Все сериалы

все сериалы на PB.wtf

RePack

FAR CRY 5
  

Рики и Флэш / Ricki and the Flash (Джонатан Демме / Jonathan Demme) [2015, драма, комедия, музыка, BDRip-AVC от potroks] DUB Лицензия pb.wtf

Рики и Флэш через торрент pb.wtf

Размер: 2.18 GB | Добавлен: 4 года 1 мес. назад | Торрент скачан:89 раз
Скачать  

09-12-2015 06:27 Рики и Флэш Скачать торрент  

Рики и Флэш / Ricki and the Flash
«Когда мама младше дочки»
Год выпуска: 2015
Страна: США / TriStar Pictures, Clinica Estetico Ltd., LStar Capital
Жанр: драма, комедия, музыка
Продолжительность: 01:41:27
Перевод: Дубляж [BD CEE]
Субтитры: русские (полные + форс.), украинские (полные + форс.), английские Full + SDH + SDH-Colored)
Навигация по главам: есть
Режиссер: Джонатан Демме / Jonathan Demme
В ролях:

Мэрил Стрип (Ricki), Мэми Гаммер (Julie), Кевин Клайн (Pete), Одра МакДональд (Maureen), Себастьян Стэн (Josh), Рик Спрингфилд (Greg), Рик Росас (Buster), Джо Витале (Joe), Берни Уоррелл (Billy), Бен Платт (Daniel), Питер С. Демме (Walt), Джим Рош (Provocative Dancer)
Описание: История экстравагантной творческой личности, которая неожиданно возвращается в дом к своему бывшему мужу спустя много лет жизни вдали от него и детей.

Качество: BDRip-AVC
Формат: MKV
Видео кодек: AVC
Аудио кодек: AC3
Видео: 1132x474 (2.40:1), 2180 kbps, 23,976 fps, 0.169 bit/pixel
Аудио#1: AC3 / 5.1 / 48 kHz / 448 kbps / 16 bit | RUS
Аудио#2: AC3 / 5.1 / 48 kHz / 448 kbps / 16 bit | ENG

Релиз группы:
Автор рипа: potroks

Код:

General
Unique ID                   : 188066403482192227514038864188795618117 (0x8D7C4594AE949FAA88ADF2ECE64D8345)
Complete name               : Riki.i.Flesh.2015.DUAL.BDRip.x264.-HELLYWOOD.mkv
Format                      : Matroska
Format version              : Version 4 / Version 2
File size                   : 2.18 GiB
Duration                    : 1h 41mn
Overall bit rate            : 3 072 Kbps
Movie name                  : Ricki and the Flash (2015) - HELLYWOOD
Encoded date                : UTC 2010-02-22 21:41:31
Writing application         : mkvmerge v5.8.0 ('No Sleep / Pillow') built on Sep 30 2012 10:57:14
Writing library             : libebml v1.3.0 + libmatroska v1.4.0

Video
ID                          : 1
Format                      : AVC
Format/Info                 : Advanced Video Codec
Format profile              : High@L4.1
Format settings, CABAC      : Yes
Format settings, ReFrames   : 10 frames
Codec ID                    : V_MPEG4/ISO/AVC
Duration                    : 1h 41mn
Bit rate                    : 2 180 Kbps
Width                       : 1 132 pixels
Height                      : 474 pixels
Display aspect ratio        : 2.40:1
Frame rate mode             : Constant
Frame rate                  : 23.976 fps
Color space                 : YUV
Chroma subsampling          : 4:2:0
Bit depth                   : 8 bits
Scan type                   : Progressive
Bits/(Pixel*Frame)          : 0.169
Stream size                 : 1.50 GiB (69%)
Title                       : potroks
Writing library             : x264 core 146 r2538 121396c
Encoding settings           : cabac=1 / ref=10 / deblock=1:-2:-2 / analyse=0x3:0x113 / me=umh / subme=11 / psy=1 / psy_rd=1.05:0.10 / mixed_ref=1 / me_range=32 / chroma_me=1 / trellis=2 / 8x8dct=1 / cqm=0 / deadzone=21,11 / fast_pskip=0 / chroma_qp_offset=-3 / threads=9 / lookahead_threads=2 / sliced_threads=0 / nr=0 / decimate=0 / interlaced=0 / bluray_compat=0 / constrained_intra=0 / bframes=11 / b_pyramid=2 / b_adapt=2 / b_bias=0 / direct=3 / weightb=1 / open_gop=0 / weightp=2 / keyint=250 / keyint_min=23 / scenecut=40 / intra_refresh=0 / rc_lookahead=60 / rc=2pass / mbtree=0 / bitrate=2180 / ratetol=1.0 / qcomp=0.70 / qpmin=0 / qpmax=69 / qpstep=4 / cplxblur=20.0 / qblur=0.5 / vbv_maxrate=14000 / vbv_bufsize=14000 / nal_hrd=none / filler=0 / ip_ratio=1.35 / pb_ratio=1.25 / aq=1:0.80
Language                    : English
Default                     : Yes
Forced                      : No

Audio #1
ID                          : 2
Format                      : AC-3
Format/Info                 : Audio Coding 3
Mode extension              : CM (complete main)
Format settings, Endianness : Big
Codec ID                    : A_AC3
Duration                    : 1h 41mn
Bit rate mode               : Constant
Bit rate                    : 448 Kbps
Channel(s)                  : 6 channels
Channel positions           : Front: L C R, Side: L R, LFE
Sampling rate               : 48.0 KHz
Compression mode            : Lossy
Stream size                 : 326 MiB (15%)
Title                       : Dub | DD 5.1 @ 448 kbps - Blu-Ray CEE
Language                    : Russian
Default                     : Yes
Forced                      : No

Audio #2
ID                          : 3
Format                      : AC-3
Format/Info                 : Audio Coding 3
Mode extension              : CM (complete main)
Format settings, Endianness : Big
Codec ID                    : A_AC3
Duration                    : 1h 41mn
Bit rate mode               : Constant
Bit rate                    : 448 Kbps
Channel(s)                  : 6 channels
Channel positions           : Front: L C R, Side: L R, LFE
Sampling rate               : 48.0 KHz
Compression mode            : Lossy
Stream size                 : 326 MiB (15%)
Title                       : Original | DD 5.1 @ 448 kbps
Language                    : English
Default                     : No
Forced                      : No

Text #1
ID                          : 4
Format                      : UTF-8
Codec ID                    : S_TEXT/UTF8
Codec ID/Info               : UTF-8 Plain Text
Title                       : Forced
Language                    : Russian
Default                     : Yes
Forced                      : No

Text #2
ID                          : 5
Format                      : UTF-8
Codec ID                    : S_TEXT/UTF8
Codec ID/Info               : UTF-8 Plain Text
Title                       : Blu-Ray
Language                    : Russian
Default                     : No
Forced                      : No

Text #3
ID                          : 6
Format                      : UTF-8
Codec ID                    : S_TEXT/UTF8
Codec ID/Info               : UTF-8 Plain Text
Title                       : Forced
Language                    : Ukrainian
Default                     : No
Forced                      : No

Text #4
ID                          : 7
Format                      : UTF-8
Codec ID                    : S_TEXT/UTF8
Codec ID/Info               : UTF-8 Plain Text
Title                       : Blu-Ray
Language                    : Ukrainian
Default                     : No
Forced                      : No

Text #5
ID                          : 8
Format                      : UTF-8
Codec ID                    : S_TEXT/UTF8
Codec ID/Info               : UTF-8 Plain Text
Title                       : Full
Language                    : English
Default                     : No
Forced                      : No

Text #6
ID                          : 9
Format                      : UTF-8
Codec ID                    : S_TEXT/UTF8
Codec ID/Info               : UTF-8 Plain Text
Title                       : SDH
Language                    : English
Default                     : No
Forced                      : No

Text #7
ID                          : 10
Format                      : UTF-8
Codec ID                    : S_TEXT/UTF8
Codec ID/Info               : UTF-8 Plain Text
Title                       : SDH-Colored
Language                    : English
Default                     : No
Forced                      : No

Menu
00:00:00.000                : en:(01)00:00:00:000
00:07:27.863                : en:(02)00:07:27:863
00:12:49.184                : en:(03)00:12:49:184
00:19:04.308                : en:(04)00:19:04:308
00:24:38.727                : en:(05)00:24:38:727
00:28:08.228                : en:(06)00:28:08:228
00:34:20.224                : en:(07)00:34:20:224
00:41:59.391                : en:(08)00:41:59:391
00:45:36.525                : en:(09)00:45:36:525
00:49:36.431                : en:(10)00:49:36:431
00:56:05.402                : en:(11)00:56:05:402
01:03:27.929                : en:(12)01:03:27:929
01:08:03.661                : en:(13)01:08:03:661
01:18:05.262                : en:(14)01:18:05:262
01:23:02.268                : en:(15)01:23:02:268
01:30:18.496                : en:(16)01:30:18:496

pb.wtf



Скачать Рики и Флэш через торрент http://i76.fastpic.ru/big/2015/1206/fe/374892bd13a32ca45f1f21e8f57b93fe.png Скачать фильм Рики и Флэш через торрент бесплантно в хорошем качестве Описание: История экстравагантной творческой личности, которая неожиданно возвращается в дом к своему бывшему мужу спустя много лет жизни ... 6.3 10 4
Торрент: Зарегистрирован [2015-12-09 06:27] · скачан: 89 раз
Статус: √ проверено
Размер: 2.18 GB
Как cкачать? Как скачать Рики и Флэш через торрент | qTorrent

% Раздел Тема Автор DL S | L
R.G. Resident & PiratVoice - Фильмы, Видео [ 1.46 GB ] Рики и Флэш / Ricki and the Flash [2015 музыка HDRip-AVC] DUB От R.G.Resident White Smoke Скачать
1 | 0
Фильмы 2015 [DVDrip, WEB-DLRip, HDrip] [ 2.18 GB ] Рики и Флэш / Ricki and the Flash [2015 музыка BDRip-AVC от sokol_ok] DUB sokol_ok Скачать
2 | 0
Фильмы 2015 [DVDrip, WEB-DLRip, HDrip] [ 1.45 GB ] Рики и Флэш / Ricki and the Flash [2015 музыка BDRip-AVC от sokol_ok] DUB sokol_ok Скачать
2 | 0
Фильмы 2015 [DVDrip, WEB-DLRip, HDrip] [ 1.46 GB ] Рики и Флэш / Ricki and the Flash [2015 музыка BDRip-AVC] DUB potroks Скачать
1 | 0

28-11-2019 20:33  

Отключить всю рекламу на сайте

    Дорогой пользователь! Огромная просьба, поблагодарите релизера, оцените раздачу и оставьте свои комментарий, если Вы скачали Рики и Флэш через торрент бесплатно! Внесите свою лепту в развитие PiratBit!
    Комментировать посты могут только пользователи прошедшие не сложную регистрацию
    Показать сообщения:    

    Рики и Флэш через торрент
    Скачать бесплатно Рики и Флэш
    Рики и Флэш скачать торрент
    Рики и Флэш смотреть онлайн
    Cкачать фильм Рики и Флэш бесплатно
    Рики и Флэш скачать торрент в хорошем качестве
    Рики и Флэш смотреть онлайн бесплатно в хорошем качестве


    Вы не можете начинать темы
    Вы не можете отвечать на сообщения
    Вы не можете редактировать свои сообщения
    Вы не можете удалять свои сообщения
    Вы не можете голосовать в опросах
    Вы не можете прикреплять файлы к сообщениям
    Вы можете скачивать файлы