Ссылка на приватное зеркало нашего сайта всего за 1$. Внимание количество ограничено!!!

2 сезон

iTunes

1 сезон

1

iTunes

iTunes

iTunes

1 сезон

RePack

30

ИГРА 18+

pack

ВАЖНО

!!Акция!!

Alien_RageХит недели

RePack

MK11
pack

Забери бонус

RePack

jed

!!Акция!!

Alien_Rage

RePack

fifa19

RePack

Assassins Creed: Odyssey

RePack

NEED FOR SPEED™ PAYBACK

4 сезон

9 сезон

Бесстыжие 9 сезон

Все сериалы

все сериалы на PB.wtf

RePack

FAR CRY 5
  

Из 13 в 30 / 13 Going on 30 (Гари Виник) [2004, фэнтези, мелодрама, комедия, BDRip 720p by msltel] DUB, 2 x MVO, AVO pb.wtf

Из 13 в 30 через торрент pb.wtf

Размер: 5.46 GB | Добавлен: 4 года 10 мес. назад | Торрент скачан:80 раз
Скачать  

09-12-2015 08:16 Из 13 в 30 Скачать торрент  

Название: Из 13 в 30
Оригинальное название: 13 Going on 30
Год выпуска: 2004
Страна: США
Жанр: фэнтези, мелодрама, комедия
Продолжительность: 01:37:48
Перевод: дублированный, профессиональный многоголосый, авторский

Режиссёр: Гари Виник

В ролях: Дженнифер Гарнер, Марк Руффало, Джуди Грир, Энди Серкис, Кэти Бэйкер, Фил Ривз, Сэмюэл Болл, Марсия ДеБонис, Криста Б. Аллен, Шон Маркетт, Кирстен Уоррен, Джо Грифази, Мэри Пэт Глисон, Сьюзэн Иган, Линн Коллинз, Рени Олстэд, Александра Кайл, Алекс Блэк, Эшли Бенсон, Бриттани Каррен, Бри Ларсон, Меган Ласк, Джулия Рот, Джеффри Шэйн Кон, Джордж Хайн, Филип Павел, Сара Лоу, Маз Джобрани, Йен Барфорд, Беннита Криста Нэлл, Робин Ли, Джастин Бурк, Сара Суэйн, Катрин Комбс, Джина Мантенья

Описание: Дети так отчаянно хотят быть взрослыми, не понимая, что пройдут годы, и они так же страстно захотят обратного. Но, так как в нашем мире всё ещё случаются чудеса, некоторым не приходится ждать долго, чтобы убедиться в этом. Сегодня Дженни всего 13, и она очень хочет стать взрослой. Видимо, её желанье попадает по нужному адресу, поскольку на утро она просыпается... 30-летней красавицей! Словно кто-то перемотал пленку с семнадцатью годами жизни. Самое время кричать "ура". Только вот какая штука: для всех эти годы прошли обычным порядком, а во взрослой Дженни, осталась душа девочки-подростка, что постоянно приводит к забавным недоразумениям и ставит в тупик окружающих...



Качество: BDRip 720p Сравнение с исходником
Формат: MKV
Видео: MPEG-4 AVC, 5268 Кбит/с, 1280x692, 23,976 кадра/с
Аудио 1: русский, AC3, 640 kbps, 6 ch, 48 kHz [дублированный]
Аудио 2: русский, AC3, 448 kbps, 6 ch, 48 kHz [профессиональный многоголосый, Tycoon]
Аудио 3: русский, AC3, 384 kbps, 6 ch, 48 kHz [профессиональный многоголосый]
Аудио 4: русский, AC3, 448 kbps, 6 ch, 48 kHz [авторский, Юрий Немахов]
Аудио 5: английский, AC3, 640 kbps, 6 ch, 48 kHz [оригинал]
Субтитры 1: русские
Субтитры 2: английские
Общее
Уникальный идентификатор : 237413448813923851761287741154242618378 (0xB29C2AC249B469D4B7C0A0F00F08640A)
Полное имя : D:\Video\Из 13 в 30.2004.BDRip.720p.mkv
Формат : Matroska
Версия формата : Version 4 / Version 2
Размер файла : 5,46 Гбайт
Продолжительность : 1 ч. 37 м.
Общий поток : 7987 Кбит/сек
Дата кодирования : UTC 2015-12-07 15:33:20
Программа кодирования : mkvmerge v8.2.0 ('World of Adventure') 64bit
Библиотека кодирования : libebml v1.3.1 + libmatroska v1.4.2
DURATION : 01:32:02.189000000
NUMBER_OF_FRAMES : 1006
NUMBER_OF_BYTES : 38291
_STATISTICS_WRITING_APP : mkvmerge v8.2.0 ('World of Adventure') 64bit
_STATISTICS_WRITING_DATE_UTC : 2015-12-07 15:33:20
_STATISTICS_TAGS : BPS DURATION NUMBER_OF_FRAMES NUMBER_OF_BYTES

Видео
Идентификатор : 1
Формат : AVC
Формат/Информация : Advanced Video Codec
Профиль формата : High@L4.1
Параметр CABAC формата : Да
Параметр ReFrames формата : 9 кадров
Идентификатор кодека : V_MPEG4/ISO/AVC
Продолжительность : 1 ч. 37 м.
Битрейт : 5268 Кбит/сек
Ширина : 1280 пикселей
Высота : 692 пикселя
Соотношение сторон : 1,85:1
Режим частоты кадров : Постоянный
Частота кадров : 23,976 кадра/сек
Цветовое пространство : YUV
Субдискретизация насыщенности : 4:2:0
Битовая глубина : 8 бит
Тип развёртки : Прогрессивная
Бит/(Пиксели*Кадры) : 0.248
Размер потока : 3,60 Гбайт (66%)
Заголовок : BDRip by STarankov
Библиотека кодирования : x264 core 146 r2538 121396c
Настройки программы : cabac=1 / ref=9 / deblock=1:-1:-1 / analyse=0x3:0x113 / me=umh / subme=10 / psy=1 / psy_rd=1.00:0.15 / mixed_ref=1 / me_range=32 / chroma_me=1 / trellis=2 / 8x8dct=1 / cqm=0 / deadzone=21,11 / fast_pskip=1 / chroma_qp_offset=-3 / threads=6 / lookahead_threads=1 / sliced_threads=0 / nr=0 / decimate=1 / interlaced=0 / bluray_compat=0 / constrained_intra=0 / bframes=8 / b_pyramid=2 / b_adapt=2 / b_bias=0 / direct=1 / weightb=1 / open_gop=0 / weightp=2 / keyint=230 / keyint_min=23 / scenecut=40 / intra_refresh=0 / rc_lookahead=40 / rc=crf / mbtree=0 / crf=17.9 / qcomp=0.60 / qpmin=0 / qpmax=69 / qpstep=4 / vbv_maxrate=40000 / vbv_bufsize=50000 / crf_max=0.0 / nal_hrd=none / filler=0 / ip_ratio=1.40 / pb_ratio=1.30 / aq=1:1.00
Язык : English
Default : Да
Forced : Нет
DURATION : 01:37:47.862000000
NUMBER_OF_FRAMES : 140688
NUMBER_OF_BYTES : 3978476050
_STATISTICS_WRITING_APP : mkvmerge v8.2.0 ('World of Adventure') 64bit
_STATISTICS_WRITING_DATE_UTC : 2015-12-07 15:33:20
_STATISTICS_TAGS : BPS DURATION NUMBER_OF_FRAMES NUMBER_OF_BYTES

Аудио #1
Идентификатор : 2
Формат : AC-3
Формат/Информация : Audio Coding 3
Расширение режима : CM (complete main)
Параметр Endianness формата : Big
Идентификатор кодека : A_AC3
Продолжительность : 1 ч. 37 м.
Вид битрейта : Постоянный
Битрейт : 640 Кбит/сек
Каналы : 6 каналов
Расположение каналов : Front: L C R, Side: L R, LFE
Частота : 48,0 КГц
Метод сжатия : С потерями
Размер потока : 448 Мбайт (8%)
Заголовок : DUB (BD CEE)
Язык : Russian
Default : Да
Forced : Нет

Аудио #2
Идентификатор : 3
Формат : AC-3
Формат/Информация : Audio Coding 3
Расширение режима : CM (complete main)
Параметр Endianness формата : Big
Идентификатор кодека : A_AC3
Продолжительность : 1 ч. 37 м.
Вид битрейта : Постоянный
Битрейт : 448 Кбит/сек
Каналы : 6 каналов
Расположение каналов : Front: L C R, Side: L R, LFE
Частота : 48,0 КГц
Метод сжатия : С потерями
Размер потока : 313 Мбайт (6%)
Заголовок : MVO (вариант 1)
Язык : Russian
Default : Нет
Forced : Нет

Аудио #3
Идентификатор : 4
Формат : AC-3
Формат/Информация : Audio Coding 3
Расширение режима : CM (complete main)
Параметр Endianness формата : Big
Идентификатор кодека : A_AC3
Продолжительность : 1 ч. 37 м.
Вид битрейта : Постоянный
Битрейт : 384 Кбит/сек
Каналы : 6 каналов
Расположение каналов : Front: L C R, Side: L R, LFE
Частота : 48,0 КГц
Метод сжатия : С потерями
Размер потока : 269 Мбайт (5%)
Заголовок : MVO (вариант 2)
Язык : Russian
Default : Нет
Forced : Нет

Аудио #4
Идентификатор : 5
Формат : AC-3
Формат/Информация : Audio Coding 3
Расширение режима : CM (complete main)
Параметр Endianness формата : Big
Идентификатор кодека : A_AC3
Продолжительность : 1 ч. 37 м.
Вид битрейта : Постоянный
Битрейт : 448 Кбит/сек
Каналы : 6 каналов
Расположение каналов : Front: L C R, Side: L R, LFE
Частота : 48,0 КГц
Метод сжатия : С потерями
Размер потока : 313 Мбайт (6%)
Заголовок : AVO (Юрий Немахов)
Язык : Russian
Default : Нет
Forced : Нет

Аудио #5
Идентификатор : 6
Формат : AC-3
Формат/Информация : Audio Coding 3
Расширение режима : CM (complete main)
Параметр Endianness формата : Big
Идентификатор кодека : A_AC3
Продолжительность : 1 ч. 37 м.
Вид битрейта : Постоянный
Битрейт : 640 Кбит/сек
Каналы : 6 каналов
Расположение каналов : Front: L C R, Side: L R, LFE
Частота : 48,0 КГц
Метод сжатия : С потерями
Размер потока : 448 Мбайт (8%)
Заголовок : Original
Язык : English
Default : Нет
Forced : Нет

Текст #1
Идентификатор : 7
Формат : UTF-8
Идентификатор кодека : S_TEXT/UTF8
Идентификатор кодека/Информация : UTF-8 Plain Text
Заголовок : русский
Язык : Russian
Default : Нет
Forced : Нет

Текст #2
Идентификатор : 8
Формат : UTF-8
Идентификатор кодека : S_TEXT/UTF8
Идентификатор кодека/Информация : UTF-8 Plain Text
Заголовок : английский
Default : Нет
Forced : Нет
pb.wtf



Скачать Из 13 в 30 через торрент http://s52.radikal.ru/i138/1512/40/4e5105bb541a.png Скачать фильм Из 13 в 30 через торрент бесплантно в хорошем качестве Описание: Дети так отчаянно хотят быть взрослыми, не понимая, что пройдут годы, и они так же страстно захотят обратного. Но, так как в ... 10 10 5
Info! Золотая раздача, скачанное не засчитывается.
Торрент: Зарегистрирован [2015-12-09 08:16] · скачан: 80 раз
Статус: √ проверено
Размер: 5.46 GB
Как cкачать? Как скачать Из 13 в 30 через торрент | qTorrent

% Раздел Тема Автор DL S | L
Фильмы [HD 720p, 1080p] (Хороший звук DUB, MVO) [ 12.09 GB ] Из 13 в 30 / 13 Going on 30 [2004 BDRip 1080p by msltel] DUB 2 x MVO AVO msltel Скачать
1 | 0
Фильмы 2001-2005 [ 3.82 GB ] Из 13 в 30 / 13 Going on 30 [2004 BDRip AVC by msltel] DUB 2 x MVO AVO msltel Скачать
1 | 0

28-11-2019 20:33  

Отключить всю рекламу на сайте

    Дорогой пользователь! Огромная просьба, поблагодарите релизера, оцените раздачу и оставьте свои комментарий, если Вы скачали Из 13 в 30 через торрент бесплатно! Внесите свою лепту в развитие PiratBit!
    Комментировать посты могут только пользователи прошедшие не сложную регистрацию
    Показать сообщения:    

    Из 13 в 30 через торрент
    Скачать бесплатно Из 13 в 30
    Из 13 в 30 скачать торрент
    Из 13 в 30 смотреть онлайн
    Cкачать фильм Из 13 в 30 бесплатно
    Из 13 в 30 скачать торрент в хорошем качестве
    Из 13 в 30 смотреть онлайн бесплатно в хорошем качестве


    Вы не можете начинать темы
    Вы не можете отвечать на сообщения
    Вы не можете редактировать свои сообщения
    Вы не можете удалять свои сообщения
    Вы не можете голосовать в опросах
    Вы не можете прикреплять файлы к сообщениям
    Вы можете скачивать файлы