Ссылка на приватное зеркало нашего сайта всего за 1$. Внимание количество ограничено!!!

2 сезон

iTunes

1 сезон

1

iTunes

iTunes

iTunes

1 сезон

RePack

30

ИГРА 18+

pack

ВАЖНО

!!Акция!!

Alien_RageХит недели

RePack

MK11
pack

Забери бонус

RePack

jed

!!Акция!!

Alien_Rage

RePack

fifa19

RePack

Assassins Creed: Odyssey

RePack

NEED FOR SPEED™ PAYBACK

4 сезон

9 сезон

Бесстыжие 9 сезон

Все сериалы

все сериалы на PB.wtf

RePack

FAR CRY 5
  

Король Лев / The Lion King (Роджер Аллерс, Роб Минкофф / Roger Allers, Rob Minkoff) [1994, мультфильм, мюзикл, драма, комедия, приключения, семейный, BDRip] Dub pb.wtf

Король Лев через торрент pb.wtf

Раздают: 1 [ 0 KB/s ]
Размер: 745 MB | Добавлен: 4 года 10 мес. назад | Торрент скачан:765 раз
Скачать  

09-12-2015 13:28 Король Лев Скачать торрент  


Король Лев / The Lion King
««The Circle of Life»»

ИНФОРМАЦИЯ:
Год выпуска:1994
Страна: США
Жанр: мультфильм, мюзикл, драма, приключения, семейный
Продолжительность: 01:28:23
Перевод: Дубляж
Режиссер: Роджер Аллерс, Роб Минкофф

В Ролях:


Мэттью Бродерик (Adult Simba, озвучка), Джереми Айронс (Scar, озвучка), Нэйтан Лейн (Timon, озвучка), Эрни Сабелла (Pumbaa, озвучка), Джеймс Эрл Джонс (Mufasa, озвучка), Мойра Келли (Adult Nala, озвучка), Роуэн Эткинсон (Zazu, озвучка), Вупи Голдберг (Shenzi, озвучка), Чич Марин (Banzai, озвучка), Джонатан Тейлор Томас (Young Simba, озвучка), Джим Каммингс (Ed, озвучка), Никета Калам (Young Nala, озвучка)

Описание:
У величественного Короля-Льва Муфасы рождается наследник по имени Симба. Уже в детстве любознательный малыш становится жертвой интриг своего завистливого дяди Шрама, мечтающего о власти.
Симба познаёт горе утраты, предательство и изгнание, но в конце концов обретает верных друзей и находит любимую. Закалённый испытаниями, он в нелёгкой борьбе отвоёвывает своё законное место в «Круге жизни», осознав, что значит быть настоящим Королём.

  • Мировая премьера:15 июня 1994

    ТЕХ.ДАННЫЕ:
    Качество: BDRip
    Формат: AVI
    Видео: XviD, 656x368 (16:9), 1041 kbps, 23,976 fps, 0,180 bpp
    Аудио: MP3 / 2.0 / 48 kHz / 128 kbps /

    General
    Complete name : D:\Торенты\Раздачи\Korol Lev (745).avi
    Format : AVI
    Format/Info : Audio Video Interleave
    File size : 745 MiB
    Duration : 1h 28mn
    Overall bit rate : 1 179 Kbps
    Writing application : VirtualDubMod 1.5.10.3 | www.virtualdub-fr.org || (build 2550/release)
    Writing library : VirtualDubMod build 2550/release

    Video
    ID : 0
    Format : MPEG-4 Visual
    Format profile : Advanced Simple@L5
    Format settings, BVOP : 2
    Format settings, QPel : No
    Format settings, GMC : No warppoints
    Format settings, Matrix : Custom
    Codec ID : XVID
    Codec ID/Hint : XviD
    Duration : 1h 28mn
    Bit rate : 1 042 Kbps
    Width : 656 pixels
    Height : 368 pixels
    Display aspect ratio : 16:9
    Frame rate : 23.976 fps
    Color space : YUV
    Chroma subsampling : 4:2:0
    Bit depth : 8 bits
    Scan type : Progressive
    Compression mode : Lossy
    Bits/(Pixel*Frame) : 0.180
    Stream size : 659 MiB (88%)
    Writing library : XviD 65

    Audio
    ID : 1
    Format : MPEG Audio
    Format version : Version 1
    Format profile : Layer 3
    Codec ID : 55
    Codec ID/Hint : MP3
    Duration : 1h 28mn
    Bit rate mode : Constant
    Bit rate : 128 Kbps
    Channel(s) : 2 channels
    Sampling rate : 48.0 KHz
    Compression mode : Lossy
    Stream size : 80.9 MiB (11%)
    Alignment : Aligned on interleaves
    Interleave, duration : 42 ms (1.00 video frame)
    Interleave, preload duration : 504 ms
    Writing library : LAME3.99r
    Encoding settings : -m s -V 4 -q 2 -lowpass 17 -b 128
    Скриншоты:

    © Оформление by .::Ворон::.
    pb.wtf



  • Скачать Король Лев через торрент http://pic.kartinco.top/images/6/ordi9.jpg Скачать фильм Король Лев через торрент бесплантно в хорошем качестве Описание: У величественного Короля-Льва Муфасы рождается наследник по имени Симба. Уже в детстве любознательный малыш становится жертвой ... 9.9 10 15
    Info! Золотая раздача, скачанное не засчитывается.
    Торрент: Зарегистрирован [2015-12-09 13:28] · скачан: 765 раз
    Статус: √ проверено
    Размер: 745 MB
    Как cкачать? Как скачать Король Лев через торрент | qTorrent

    % Раздел Тема Автор DL S | L
    Иностранные мультфильмы [ 795 MB ] Король Лев / The Lion King [2019 мультфильм мюзикл HDRip] DUB [] bober100 Скачать
    1 | 0
    Ultra HD (UHD: 2K, 4K, 8K) [ 24.36 GB ] Король Лев / The Lion King [2019 мультфильм мюзикл UHD BDRip 2160p] DUB [] bober100 Скачать
    2 | 0
    3D Мультфильмы [ 13.45 GB ] Король Лев 3Д / The Lion King 3D [2019 мультфильм мюзикл BDRip 1080p] [Anamorph SideBySide] DUB [] bober100 Скачать
    2 | 0
    Зарубежные Мультфильмы (BDRip 1080p, 720p, Blu-ray, BD-Remux) [ 7.01 GB ] Король Лев / The Lion King [2019 мультфильм мюзикл BDRip-HEVC 1080p ] DUB [] bober100 Скачать
    3 | 0
    Иностранные мультфильмы [ 2.36 GB ] Король Лев / The Lion King [2019 мультфильм мюзикл BDRip-AVC] DUB [] - ExKinoRay Enigma2010 Скачать
    27 | 0
    Зарубежные Мультфильмы (BDRip 1080p, 720p, Blu-ray, BD-Remux) [ 41.53 GB ] Король Лев / The Lion King [2019 мультфильм мюзикл Blu-ray EUR 1080p] DUB [] bober100 Скачать
    1 | 0
    3D Мультфильмы [ 11.54 GB ] Король Лев 3Д / The Lion King 3D [2019 мультфильм мюзикл BDRip 1080p] [Half OverUnder] DUB [] bober100 Скачать
    2 | 0

    28-11-2019 20:33  

    Отключить всю рекламу на сайте

    15-03-2016 11:12 Король Лев Скачать торрент  

    Спасибо очень хороший мультфильм !pb.wtf



      Дорогой пользователь! Огромная просьба, поблагодарите релизера, оцените раздачу и оставьте свои комментарий, если Вы скачали Король Лев через торрент бесплатно! Внесите свою лепту в развитие PiratBit!
      Комментировать посты могут только пользователи прошедшие не сложную регистрацию
      Показать сообщения:    

      Король Лев через торрент
      Скачать бесплатно Король Лев
      Король Лев скачать торрент
      Король Лев смотреть онлайн
      Cкачать фильм Король Лев бесплатно
      Король Лев скачать торрент в хорошем качестве
      Король Лев смотреть онлайн бесплатно в хорошем качестве


      Вы не можете начинать темы
      Вы не можете отвечать на сообщения
      Вы не можете редактировать свои сообщения
      Вы не можете удалять свои сообщения
      Вы не можете голосовать в опросах
      Вы не можете прикреплять файлы к сообщениям
      Вы можете скачивать файлы