Ссылка на приватное зеркало нашего сайта всего за 1$. Внимание количество ограничено!!!

2 сезон

iTunes

1 сезон

1

2 сезон

2 сезон

iTunes

1 сезон

RePack

30

Новинка

ВАЖНО

ИГРА 18+

pack

RePack

MK11
pack

Забери бонус

RePack

jed

!!Акция!!

Alien_Rage

RePack

fifa19

RePack

Assassins Creed: Odyssey

RePack

NEED FOR SPEED™ PAYBACK

4 сезон

9 сезон

Бесстыжие 9 сезон

Все сериалы

все сериалы на PB.wtf

RePack

FAR CRY 5
  

Специальный корреспондент - Непредсказуемый партнер [09.12.2015 г., Информационно-аналитическая программа, SATRip, Оригинальный] pb.wtf

Специальный корреспондент - Непредсказуемый партнер через торрент pb.wtf

Размер: 2.05 GB | Добавлен: 4 года 11 мес. назад | Торрент скачан:17 раз
Скачать  

09-12-2015 18:26 Специальный корреспондент - Непредсказуемый партнер Скачать торрент  

Специальный корреспондент - Непредсказуемый партнерГод выпуска: 2015
Страна: Россия
Жанр: Информационно-аналитическая программа
Продолжительность: 02:26:12
Перевод: Оригинальный

Описание: "Специальный корреспондент" - это популярная публицистическая программа, которая выходит на телеканале "Россия" с сентября 2002 года. Каждую неделю один из ведущих рассказывает в своем фильме-репортаже о какой-либо актуальной проблеме, существующей в современном обществе, посвящает зрительскую аудиторию в подробности наиболее значимых для страны и мира событий.

Качество: SATRip
Формат: AVI
Видео кодек: XviD
Аудио кодек: AC3
Видео: 720x464, 25 fps, XviD, ~1800 kbps avg, 0.19 bit/pixel
Аудио#1: 48 kHz, AC3, 2 ch, ~192.00 kbps avg
скриншот   скриншот   скриншот   скриншот   скриншот   скриншот  

General
Complete name : C:\Users\tut\Desktop\закаченое\Spetcialniy.Korrespondent.09.12.2015.SATRip.avi
Format : AVI
Format/Info : Audio Video Interleave
Format profile : OpenDML
File size : 2.05 GiB
Duration : 2h 26mn
Overall bit rate : 2 005 Kbps
Writing application : VirtualDubMod 1.5.10.3 | www.virtualdub-fr.org || (build 2550/release)
Writing library : VirtualDub build 35491/release

Video
ID : 0
Format : MPEG-4 Visual
Format profile : Advanced Simple@L5
Format settings, BVOP : 2
Format settings, QPel : No
Format settings, GMC : No warppoints
Format settings, Matrix : Default (H.263)
Codec ID : XVID
Codec ID/Hint : XviD
Duration : 2h 26mn
Bit rate : 1 800 Kbps
Width : 720 pixels
Height : 464 pixels
Display aspect ratio : 16:10
Frame rate : 25.000 fps
Color space : YUV
Chroma subsampling : 4:2:0
Bit depth : 8 bits
Scan type : Progressive
Compression mode : Lossy
Bits/(Pixel*Frame) : 0.215
Stream size : 1.84 GiB (90%)
Writing library : XviD 1.2.1 (UTC 2008-12-04)

Audio
ID : 1
Format : AC-3
Format/Info : Audio Coding 3
Mode extension : CM (complete main)
Format settings, Endianness : Big
Codec ID : 2000
Duration : 2h 26mn
Bit rate mode : Constant
Bit rate : 192 Kbps
Channel(s) : 2 channels
Channel positions : Front: L R
Sampling rate : 48.0 KHz
Frame rate : 31.250 fps (1536 spf)
Compression mode : Lossy
Stream size : 201 MiB (10%)
Alignment : Split accross interleaves
Interleave, duration : 40 ms (1.00 video frame)
Interleave, preload duratio : 500 ms[/code]

pb.wtf



Скачать Специальный корреспондент - Непредсказуемый партнер через торрент http://pic1.kartinco.top/images/10/wtmw5.jpg Скачать фильм Специальный корреспондент - Непредсказуемый партнер [09.12.2015 г., Информационно-аналитическая программа, SATRip, Оригинальный]через торрент бесплантно в хорошем качестве Описание: "Специальный корреспондент" - это популярная публицистическая программа, которая выходит на телеканале "Россия" с сентября 2002 ... 8.2 10 5
Торрент: Зарегистрирован [2015-12-09 18:26] · скачан: 17 раз
Статус: √ проверено
Размер: 2.05 GB
Как cкачать? Как скачать Специальный корреспондент - Непредсказуемый партнер через торрент | qTorrent

28-11-2019 20:33  

Отключить всю рекламу на сайте

    Дорогой пользователь! Огромная просьба, поблагодарите релизера, оцените раздачу и оставьте свои комментарий, если Вы скачали Специальный корреспондент - Непредсказуемый партнер через торрент бесплатно! Внесите свою лепту в развитие PiratBit!
    Комментировать посты могут только пользователи прошедшие не сложную регистрацию
    Показать сообщения:    

    Специальный корреспондент - Непредсказуемый партнер через торрент
    Скачать бесплатно Специальный корреспондент - Непредсказуемый партнер
    Специальный корреспондент - Непредсказуемый партнер скачать торрент
    Специальный корреспондент - Непредсказуемый партнер смотреть онлайн
    Cкачать фильм Специальный корреспондент - Непредсказуемый партнер бесплатно
    Специальный корреспондент - Непредсказуемый партнер скачать торрент в хорошем качестве
    Специальный корреспондент - Непредсказуемый партнер смотреть онлайн бесплатно в хорошем качестве


    Вы не можете начинать темы
    Вы не можете отвечать на сообщения
    Вы не можете редактировать свои сообщения
    Вы не можете удалять свои сообщения
    Вы не можете голосовать в опросах
    Вы не можете прикреплять файлы к сообщениям
    Вы можете скачивать файлы