1 сезон

3 сезон

iTunes

1

iTunes

MVO

iTunes

13

1 сезон

RePack

30

Deluxe

pack

Лицензия

ВАЖНО

ИГРА 18+

pack

RePack

MK11

RePack

jed

RePack

fifa19

RePack

RDR2

RePack

NEED FOR SPEED™ PAYBACK

4 сезон

9 сезон

Бесстыжие 9 сезон

Все сериалы

все сериалы на PB.wtf

RePack

FAR CRY 5

Anonymous, добрый вечер, мы катастрофически не успеваем собрать деньги на оплату серверов, помогите нам пожалуйста 5,10,15р., для нас важна любая помощь . В качестве благодарности мы отключим Вам всю рекламу на сайте (укажите свой ник в строку Ваше имя)!

×
  
Magnet ссылка

Ван Хельсинг / Van Helsing (Стивен Соммерс) [2004, фэнтези, боевик, триллер, HDRip-AVC, Дубляж] R.G.Resident pb.wtf

Ван Хельсинг через торрент pb.wtf

Размер: 2.14 GB | Добавлен: 5 лет 7 мес. назад | Торрент скачан:52 раза
Скачать  

09-12-2015 19:32 Ван Хельсинг Скачать торрент  

Ван Хельсинг / Van Helsing
««The One Name They All Fear»»

Год выпуска: 2004
Страна: США, Чехия
Жанр: фэнтези, боевик, триллер, детектив, приключения
Продолжительность: 02:11:37
Перевод: Дубляж
Режиссер: Стивен Соммерс
В ролях:

Хью Джекман (Van Helsing), Кейт Бекинсейл (Anna Valerious), Ричард Роксбург (Count Vladislaus Dracula), Дэвид Уэнэм (Carl), Шулер Хенсли (Frankenstein's Monster), Елена Анайя (Aleera), Уилл Кемп (Velkan), Кевин Дж. О’Коннор (Igor), Алан Армстронг (Cardinal Jinette), Сильвия Коллока (Verona), Джози Мэран (Marishka), Том Фишер (Top Hat)
Описание:
Глубоко в Карпатах лежит таинственная страна Трансильвания - мир, в котором зло встречается на каждом шагу, мир, в котором опасность оживает с заходом солнца, и где монстры, живущие в глубине человеческих кошмаров, обретают форму. В этот мир попадает легендарный охотник на чудовищ Ван Хельсинг, рождённый на страницах романа «Дракула» Брэма Стокера.
В своей непрерывной битве против сил зла и за освобождение мира от порождений ада, Ван Хельсинг, по заданию секретного общества, отправляется в Трансильванию, чтобы скрестить оружие со смертельно опасным, наделённым неведомой силой графом Дракулой. На помощь ему внезапно приходит бесстрашная Анна Валери, поставившая целью избавить свою семью от векового проклятья, наложенного убитым вампиром.
Мировая премьера: 3 мая 2004

MPAA: PG-13 - Детям до 13 лет просмотр не желателен
Качество: HDRip-AVC Rip by schultz R.G.Resident
Формат: MKV
Видео: AVC, 1152x624 (16:9), 1881 kbps, 23,976 fps, 0,109 bpp
Аудио: AC3 / 5.1 / 48 kHz / 448 kbps / 16 bit

Код:

x264 [info]: frame I:1366  Avg QP:19.58  size: 55779
x264 [info]: frame P:38694 Avg QP:20.58  size: 20415
x264 [info]: frame B:138973 Avg QP:22.43  size:  4958
General
Unique ID                                : 243934432157240542158627933769722625960 (0xB784100F75493427B6AFEC57A541FFA8)
Complete name                            : D:\download\Van Helsing.2004.HDRip-AVC by schultz R.G.Resident.mkv
Format                                   : Matroska
Format version                           : Version 2
File size                                : 2.14 GiB
Duration                                 : 2h 11mn
Overall bit rate                         : 2 331 Kbps
Encoded date                             : UTC 2015-12-09 07:07:29
Writing application                      : mkvmerge v6.1.0 ('Old Devil') built on Mar  4 2013 09:10:42
Writing library                          : libebml v1.3.0 + libmatroska v1.4.0

Video
ID                                       : 1
Format                                   : AVC
Format/Info                              : Advanced Video Codec
Format profile                           : High@L4.1
Format settings, CABAC                   : Yes
Format settings, ReFrames                : 12 frames
Codec ID                                 : V_MPEG4/ISO/AVC
Duration                                 : 2h 11mn
Bit rate                                 : 1 881 Kbps
Width                                    : 1 152 pixels
Height                                   : 624 pixels
Display aspect ratio                     : 16:9
Frame rate                               : 23.976 fps
Color space                              : YUV
Chroma subsampling                       : 4:2:0
Bit depth                                : 8 bits
Scan type                                : Progressive
Bits/(Pixel*Frame)                       : 0.109
Stream size                              : 1.69 GiB (79%)
Writing library                          : x264 core 130 r2273 b3065e6
Encoding settings                        : cabac=1 / ref=12 / deblock=1:-2:-2 / analyse=0x3:0x113 / me=umh / subme=11 / psy=1 / psy_rd=1.00:0.15 / mixed_ref=1 / me_range=24 / chroma_me=1 / trellis=2 / 8x8dct=1 / cqm=0 / deadzone=21,11 / fast_pskip=1 / chroma_qp_offset=-3 / threads=12 / lookahead_threads=2 / sliced_threads=0 / nr=0 / decimate=0 / interlaced=0 / bluray_compat=0 / constrained_intra=0 / bframes=9 / b_pyramid=2 / b_adapt=2 / b_bias=0 / direct=3 / weightb=1 / open_gop=0 / weightp=2 / keyint=240 / keyint_min=23 / scenecut=40 / intra_refresh=0 / rc_lookahead=40 / rc=2pass / mbtree=1 / bitrate=1881 / ratetol=1.0 / qcomp=0.60 / qpmin=0 / qpmax=69 / qpstep=4 / cplxblur=20.0 / qblur=0.5 / vbv_maxrate=17500 / vbv_bufsize=14000 / nal_hrd=none / ip_ratio=1.40 / aq=1:0.80
Default                                  : Yes
Forced                                   : No

Audio
ID                                       : 2
Format                                   : AC-3
Format/Info                              : Audio Coding 3
Mode extension                           : CM (complete main)
Codec ID                                 : A_AC3
Duration                                 : 2h 11mn
Bit rate mode                            : Constant
Bit rate                                 : 448 Kbps
Channel(s)                               : 6 channels
Channel positions                        : Front: L C R, Side: L R, LFE
Sampling rate                            : 48.0 KHz
Bit depth                                : 16 bits
Compression mode                         : Lossy
Stream size                              : 422 MiB (19%)
Default                                  : Yes
Forced                                   : No


скриншот   скриншот   скриншот   скриншот   скриншот   скриншот  
pb.wtf



Скачать Ван Хельсинг через торрент https://pic1.kartinco.top/images/10/91et4.jpg Скачать фильм Ван Хельсинг через торрент бесплантно в хорошем качестве Описание: Глубоко в Карпатах лежит таинственная страна Трансильвания - мир, в котором зло встречается на каждом шагу, мир, в котором ... 8.7 10 7
Info! Золотая раздача, скачанное не засчитывается.
Торрент: Зарегистрирован [2015-12-09 19:32] · скачан: 52 раз
Статус: √ проверено
Размер: 2.14 GB
Как cкачать? Как скачать Ван Хельсинг через торрент | UTorrent

28-11-2019 20:33  

Отключить всю рекламу на сайте

    Дорогой пользователь! Огромная просьба, поблагодарите релизера, оцените раздачу и оставьте свои комментарий, если Вы скачали Ван Хельсинг через торрент бесплатно! Внесите свою лепту в развитие PiratBit!
    Комментировать посты могут только пользователи прошедшие не сложную регистрацию
    Показать сообщения:    

    Ван Хельсинг через торрент
    Скачать бесплатно Ван Хельсинг
    Ван Хельсинг скачать торрент
    Ван Хельсинг смотреть онлайн
    Cкачать фильм Ван Хельсинг бесплатно
    Ван Хельсинг скачать торрент в хорошем качестве
    Ван Хельсинг смотреть онлайн бесплатно в хорошем качестве


    Вы не можете начинать темы
    Вы не можете отвечать на сообщения
    Вы не можете редактировать свои сообщения
    Вы не можете удалять свои сообщения
    Вы не можете голосовать в опросах
    Вы не можете прикреплять файлы к сообщениям
    Вы можете скачивать файлы