Ссылка на приватное зеркало нашего сайта всего за 1$. Внимание количество ограничено!!!

2 сезон

iTunes

1 сезон

1

iTunes

iTunes

iTunes

1 сезон

RePack

30

ИГРА 18+

pack

ВАЖНО

!!Акция!!

Alien_RageХит недели

RePack

MK11
pack

Забери бонус

RePack

jed

!!Акция!!

Alien_Rage

RePack

fifa19

RePack

Assassins Creed: Odyssey

RePack

NEED FOR SPEED™ PAYBACK

4 сезон

9 сезон

Бесстыжие 9 сезон

Все сериалы

все сериалы на PB.wtf

RePack

FAR CRY 5
  

Опасные пассажиры поезда 123 / The Taking of Pelham 1 2 3 (Тони Скотт / Tony Scott) [2009, триллер, боевик, криминал, BDRip 720p от potroks] DUB, AVO pb.wtf

Опасные пассажиры поезда 123 через торрент pb.wtf

Размер: 7.95 GB | Добавлен: 4 года 10 мес. назад | Торрент скачан:181 раз
Скачать  

10-12-2015 12:25 Опасные пассажиры поезда 123 Скачать торрент  

Опасные пассажиры поезда 123 / The Taking of Pelham 1 2 3
«Осторожно, двери закрываются...навсегда»
Год выпуска: 2009
Страна: США, Великобритания / Columbia Pictures, Metro-Goldwyn-Mayer (MGM)...
Жанр: триллер, боевик, криминал
Продолжительность: 01:45:55
Перевод: Дубляж [BD CEE], Авторский (одноголосый) [А.Гаврилов, Ю.Сербин, Е.Гаевский]
Субтитры: русские (полные + форс.), украинские (форс.), английские (Full + SDH + SDH-Colored)
Навигация по главам: есть
Режиссер: Тони Скотт / Tony Scott
В ролях:

Дензел Вашингтон (Walter Garber), Джон Траволта (Ryder), Джон Туртурро (Camonetti), Джеймс Гандольфини (Mayor), Майкл Рисполи (John Johnson), Луис Гусман (Phil Ramos), Рамон Родригес (Delgado), Виктор Гойцай (Bashkin), Роберт Ватаж (Emri), Джон Бенжамин Хикки (Deputy Mayor LaSalle), Алекс Калужский (George), Гбенга Акиннагбе (Wallace)
Описание: Вооруженные террористы захватывают поезд в нью-йоркском метро и требуют выкуп за пассажиров. Но даже если все их требования будут выполнены, много ли у заложников шансов остаться в живых?

Качество: BDRip 720p
Формат: MKV
Видео кодек: AVC
Аудио кодек: AC3
Видео: 1280x534 (2.40:1), 7290 kbps, 23,976 fps, 0,445 bit/pixel
Аудио №1: AC3 / 5.1 / 48 kHz / 640 kbps / 16 bit | DUB - BD CEE
Аудио №2: AC3 / 5.1 / 48 kHz / 448 kbps / 16 bit | AVO - А.Гаврилов
Аудио №3: AC3 / 5.1 / 48 kHz / 448 kbps / 16 bit | AVO - Ю.Сербин
Аудио №4: AC3 / 5.1 / 48 kHz / 640 kbps / 16 bit | AVO - Е.Гаевский
Аудио №5: AC3 / 5.1 / 48 kHz / 640 kbps / 16 bit | UKR - BD CEE
Аудио №6: AC3 / 5.1 / 48 kHz / 640 kbps / 16 bit | ENG

Релиз группы:
Автор рипа: potroks

Код:

General
Unique ID                                : 197237955676797546772477093846132704520 (0x9462A604257051248837692E7F13C508)
Complete name                            : Opasnyie.Passazhyry.Poezda.123.2009.DUB.AVO.UKR.ENG.BDRip.720p.-HELLYWOOD.mkv
Format                                   : Matroska
Format version                           : Version 4 / Version 2
File size                                : 7.95 GiB
Duration                                 : 1h 45mn
Overall bit rate                         : 10.7 Mbps
Movie name                               : The Taking of Pelham 1 2 3 (2009) - HELLYWOOD
Encoded date                             : UTC 2010-02-22 21:41:31
Writing application                      : mkvmerge v5.8.0 ('No Sleep / Pillow') built on Sep 30 2012 10:57:14
Writing library                          : libebml v1.3.0 + libmatroska v1.4.0

Video
ID                                       : 1
Format                                   : AVC
Format/Info                              : Advanced Video Codec
Format profile                           : High@L4.1
Format settings, CABAC                   : Yes
Format settings, ReFrames                : 9 frames
Codec ID                                 : V_MPEG4/ISO/AVC
Duration                                 : 1h 45mn
Bit rate                                 : 7 290 Kbps
Width                                    : 1 280 pixels
Height                                   : 534 pixels
Display aspect ratio                     : 2.40:1
Frame rate                               : 23.976 fps
Color space                              : YUV
Chroma subsampling                       : 4:2:0
Bit depth                                : 8 bits
Scan type                                : Progressive
Bits/(Pixel*Frame)                       : 0.445
Stream size                              : 5.24 GiB (66%)
Title                                    : potroks
Writing library                          : x264 core 146 r2538 121396c
Encoding settings                        : cabac=1 / ref=9 / deblock=1:-3:-3 / analyse=0x3:0x113 / me=umh / subme=11 / psy=1 / psy_rd=0.96:0.00 / mixed_ref=1 / me_range=48 / chroma_me=1 / trellis=2 / 8x8dct=1 / cqm=0 / deadzone=21,11 / fast_pskip=0 / chroma_qp_offset=-2 / threads=9 / lookahead_threads=2 / sliced_threads=0 / nr=0 / decimate=0 / interlaced=0 / bluray_compat=0 / constrained_intra=0 / bframes=10 / b_pyramid=2 / b_adapt=2 / b_bias=0 / direct=3 / weightb=1 / open_gop=0 / weightp=2 / keyint=250 / keyint_min=23 / scenecut=40 / intra_refresh=0 / rc_lookahead=60 / rc=2pass / mbtree=0 / bitrate=7290 / ratetol=1.0 / qcomp=0.70 / qpmin=0 / qpmax=69 / qpstep=4 / cplxblur=20.0 / qblur=0.5 / vbv_maxrate=14000 / vbv_bufsize=14000 / nal_hrd=none / filler=0 / ip_ratio=1.35 / pb_ratio=1.25 / aq=1:0.80
Language                                 : English
Default                                  : Yes
Forced                                   : No

Audio #1
ID                                       : 2
Format                                   : AC-3
Format/Info                              : Audio Coding 3
Mode extension                           : CM (complete main)
Codec ID                                 : A_AC3
Duration                                 : 1h 45mn
Bit rate mode                            : Constant
Bit rate                                 : 640 Kbps
Channel(s)                               : 6 channels
Channel positions                        : Front: L C R, Side: L R, LFE
Sampling rate                            : 48.0 KHz
Bit depth                                : 16 bits
Compression mode                         : Lossy
Stream size                              : 485 MiB (6%)
Title                                    : Dub | DD 5.1 @ 640 kbps - Blu-Ray CEE
Language                                 : Russian
Default                                  : Yes
Forced                                   : No

Audio #2
ID                                       : 3
Format                                   : AC-3
Format/Info                              : Audio Coding 3
Mode extension                           : CM (complete main)
Codec ID                                 : A_AC3
Duration                                 : 1h 45mn
Bit rate mode                            : Constant
Bit rate                                 : 448 Kbps
Channel(s)                               : 6 channels
Channel positions                        : Front: L C R, Side: L R, LFE
Sampling rate                            : 48.0 KHz
Bit depth                                : 16 bits
Compression mode                         : Lossy
Stream size                              : 339 MiB (4%)
Title                                    : AVO | DD 5.1 @ 448 kbps - A.Gavrilov
Language                                 : Russian
Default                                  : No
Forced                                   : No

Audio #3
ID                                       : 4
Format                                   : AC-3
Format/Info                              : Audio Coding 3
Mode extension                           : CM (complete main)
Codec ID                                 : A_AC3
Duration                                 : 1h 45mn
Bit rate mode                            : Constant
Bit rate                                 : 448 Kbps
Channel(s)                               : 6 channels
Channel positions                        : Front: L C R, Side: L R, LFE
Sampling rate                            : 48.0 KHz
Bit depth                                : 16 bits
Compression mode                         : Lossy
Stream size                              : 339 MiB (4%)
Title                                    : AVO | DD 5.1 @ 448 kbps - Y.Serbin
Language                                 : Russian
Default                                  : No
Forced                                   : No

Audio #4
ID                                       : 5
Format                                   : AC-3
Format/Info                              : Audio Coding 3
Mode extension                           : CM (complete main)
Codec ID                                 : A_AC3
Duration                                 : 1h 45mn
Bit rate mode                            : Constant
Bit rate                                 : 640 Kbps
Channel(s)                               : 6 channels
Channel positions                        : Front: L C R, Side: L R, LFE
Sampling rate                            : 48.0 KHz
Bit depth                                : 16 bits
Compression mode                         : Lossy
Stream size                              : 485 MiB (6%)
Title                                    : AVO | DD 5.1 @ 640 kbps - E.Gaevskiy
Language                                 : Russian
Default                                  : No
Forced                                   : No

Audio #5
ID                                       : 6
Format                                   : AC-3
Format/Info                              : Audio Coding 3
Mode extension                           : CM (complete main)
Codec ID                                 : A_AC3
Duration                                 : 1h 45mn
Bit rate mode                            : Constant
Bit rate                                 : 640 Kbps
Channel(s)                               : 6 channels
Channel positions                        : Front: L C R, Side: L R, LFE
Sampling rate                            : 48.0 KHz
Bit depth                                : 16 bits
Compression mode                         : Lossy
Stream size                              : 485 MiB (6%)
Title                                    : Dub | DD 5.1 @ 640 kbps - Blu-Ray CEE
Language                                 : Ukrainian
Default                                  : No
Forced                                   : No

Audio #6
ID                                       : 7
Format                                   : AC-3
Format/Info                              : Audio Coding 3
Mode extension                           : CM (complete main)
Codec ID                                 : A_AC3
Duration                                 : 1h 45mn
Bit rate mode                            : Constant
Bit rate                                 : 640 Kbps
Channel(s)                               : 6 channels
Channel positions                        : Front: L C R, Side: L R, LFE
Sampling rate                            : 48.0 KHz
Bit depth                                : 16 bits
Compression mode                         : Lossy
Stream size                              : 485 MiB (6%)
Title                                    : Original | DD 5.1 @ 640 kbps
Language                                 : English
Default                                  : No
Forced                                   : No

Text #1
ID                                       : 8
Format                                   : UTF-8
Codec ID                                 : S_TEXT/UTF8
Codec ID/Info                            : UTF-8 Plain Text
Title                                    : Forced
Language                                 : Russian
Default                                  : Yes
Forced                                   : No

Text #2
ID                                       : 9
Format                                   : UTF-8
Codec ID                                 : S_TEXT/UTF8
Codec ID/Info                            : UTF-8 Plain Text
Language                                 : Russian
Default                                  : No
Forced                                   : No

Text #3
ID                                       : 10
Format                                   : UTF-8
Codec ID                                 : S_TEXT/UTF8
Codec ID/Info                            : UTF-8 Plain Text
Title                                    : Forced
Language                                 : Ukrainian
Default                                  : No
Forced                                   : No

Text #4
ID                                       : 11
Format                                   : UTF-8
Codec ID                                 : S_TEXT/UTF8
Codec ID/Info                            : UTF-8 Plain Text
Title                                    : Full
Language                                 : English
Default                                  : No
Forced                                   : No

Text #5
ID                                       : 12
Format                                   : UTF-8
Codec ID                                 : S_TEXT/UTF8
Codec ID/Info                            : UTF-8 Plain Text
Title                                    : SDH
Language                                 : English
Default                                  : No
Forced                                   : No

Text #6
ID                                       : 13
Format                                   : UTF-8
Codec ID                                 : S_TEXT/UTF8
Codec ID/Info                            : UTF-8 Plain Text
Title                                    : SDH-Colored
Language                                 : English
Default                                  : No
Forced                                   : No

Menu
00:00:00.000                             : en:(01)00:00:00:000
00:07:10.346                             : en:(02)00:07:10:346
00:12:56.192                             : en:(03)00:12:56:192
00:18:20.682                             : en:(04)00:18:20:682
00:24:19.833                             : en:(05)00:24:19:833
00:30:08.556                             : en:(06)00:30:08:556
00:36:33.691                             : en:(07)00:36:33:691
00:42:26.794                             : en:(08)00:42:26:794
00:48:44.212                             : en:(09)00:48:44:212
00:54:05.450                             : en:(10)00:54:05:450
01:00:23.286                             : en:(11)01:00:23:286
01:07:12.570                             : en:(12)01:07:12:570
01:12:07.281                             : en:(13)01:12:07:281
01:20:04.716                             : en:(14)01:20:04:716
01:25:28.414                             : en:(15)01:25:28:414
01:32:53.568                             : en:(16)01:32:53:568

pb.wtf



Скачать Опасные пассажиры поезда 123 через торрент http://i75.fastpic.ru/big/2015/1210/ed/e905f2ca1e49c37352deadff7ce09bed.png Скачать фильм Опасные пассажиры поезда 123 через торрент бесплантно в хорошем качестве Описание: Вооруженные террористы захватывают поезд в нью-йоркском метро и требуют выкуп за пассажиров. Но даже если все их требования ... 8.8 10 8
Info! Золотая раздача, скачанное не засчитывается.
Торрент: Зарегистрирован [2015-12-10 12:25] · скачан: 181 раз
Статус: √ проверено
Размер: 7.95 GB
Как cкачать? Как скачать Опасные пассажиры поезда 123 через торрент | qTorrent



Последний раз редактировалось: potroks (2015-12-10 14:55), всего редактировалось 1 раз

28-11-2019 20:33  

Отключить всю рекламу на сайте

10-12-2015 12:51 Опасные пассажиры поезда 123 Скачать торрент  

фильм супер советую yespb.wtf



10-12-2015 13:44 Опасные пассажиры поезда 123 Скачать торрент  

Шикарный подбор дорожек pb.wtf



    Дорогой пользователь! Огромная просьба, поблагодарите релизера, оцените раздачу и оставьте свои комментарий, если Вы скачали Опасные пассажиры поезда 123 через торрент бесплатно! Внесите свою лепту в развитие PiratBit!
    Комментировать посты могут только пользователи прошедшие не сложную регистрацию
    Показать сообщения:    

    Опасные пассажиры поезда 123 через торрент
    Скачать бесплатно Опасные пассажиры поезда 123
    Опасные пассажиры поезда 123 скачать торрент
    Опасные пассажиры поезда 123 смотреть онлайн
    Cкачать фильм Опасные пассажиры поезда 123 бесплатно
    Опасные пассажиры поезда 123 скачать торрент в хорошем качестве
    Опасные пассажиры поезда 123 смотреть онлайн бесплатно в хорошем качестве


    Вы не можете начинать темы
    Вы не можете отвечать на сообщения
    Вы не можете редактировать свои сообщения
    Вы не можете удалять свои сообщения
    Вы не можете голосовать в опросах
    Вы не можете прикреплять файлы к сообщениям
    Вы можете скачивать файлы