Ссылка на приватное зеркало всего за 1$. Внимание количество ограничено!!!

iTunes

iTunes

iTunes

1

iTunes

iTunes

iTunes

iTunes

iTunes

30
pack

$ от Little Big

ВАЖНО

!!Акция!!

Alien_RageХит недели

RePack

Resident Evil 21

ИГРА 18+

pack

RePack

jed

!!Акция!!

Alien_Rage

RePack

fifa19

RePack

Assassins Creed: Odyssey

RePack

NEED FOR SPEED™ PAYBACK

4 сезон

9 сезон

Бесстыжие 9 сезон

Все сериалы

все сериалы на PB.wtf

RePack

FAR CRY 5
  

Жизнь / Life (Антон Корбейн) [2015, драма, биография, WEB-DL 1080p, Любительский двухголосый [Parovoz Production] pb.wtf

Жизнь через торрент pb.wtf

Размер: 4.01 GB | Добавлен: 4 года 6 мес. назад | Торрент скачан:42 раза
Скачать  

10-12-2015 13:18 Жизнь Скачать торрент  


Жизнь / Life
««From Rebel to Icon. Based on a True Story»»

ИНФОРМАЦИЯ:
Год выпуска:2015
Страна: Великобритания, США, Германия, Канада, Австралия
Жанр: драма, биография
Продолжительность: 01:51:11
Перевод: Любительский двухголосый [Parovoz Production]
Субтитры: русские,
Режиссер: Антон Корбейн

В Ролях:


Дэйн ДеХаан (James Dean), Роберт Паттинсон (Dennis Stock), Питер Лукас (Nicholas Ray), Лорен Галлахер (Natalie Wood), Кендал Нагорка (Messy Actress), Дрю Леджер (Boyfriend), Алессандра Мастронарди (Pier Angeli), John Blackwood (Raymond Massey), Джейсон Бликер (Journalist), Emily Hurson (Publicity Trooper), Кристиан Бруун (Roger), Джоэл Эдгертон (John Morris)

Описание:
Фотографу журнала «Life» дают задание - сделать фотографии Джеймса Дина.

  • Мировая премьера:9 февраля 2015

    ТЕХ.ДАННЫЕ:
    Качество: WEB-DL 1080p
    Формат: MKV
    Видео: AVC, 1916x796 (2.40:1), 4422 kbps, 23,976 fps, 0,121 bpp
    Аудио №1: русский / AC3 / 2.0 / 48 kHz / 256 kbps / 16 bit ||
    Аудио №2: английский / AC3 / 5.1 / 48 kHz / 384 kbps / 16 bit
    Навигация по главам: есть


    General
    Unique ID : 174033869386658586712043098362953305561 (0x82EDB43BE545DC4B84679447A09B8DD9)
    Complete name : D:\Торенты\L1fe.2015.L2.WEB-DL.1080p.mkv
    Format : Matroska
    Format version : Version 4 / Version 2
    File size : 4.01 GiB
    Duration : 1h 51mn
    Overall bit rate : 5 165 Kbps
    Movie name : Life.2015.1080p.WEB-DL.DD5.1.H264-FGT
    Encoded date : UTC 2015-12-08 11:00:52
    Writing application : mkvmerge v8.6.1 ('Flying') 64bit
    Writing library : libebml v1.3.3 + libmatroska v1.4.4

    Video
    ID : 1
    Format : AVC
    Format/Info : Advanced Video Codec
    Format profile : High@L4.0
    Format settings, CABAC : Yes
    Format settings, ReFrames : 5 frames
    Codec ID : V_MPEG4/ISO/AVC
    Duration : 1h 51mn
    Bit rate : 4 423 Kbps
    Width : 1 916 pixels
    Height : 796 pixels
    Display aspect ratio : 2.40:1
    Frame rate : 23.976 fps
    Color space : YUV
    Chroma subsampling : 4:2:0
    Bit depth : 8 bits
    Scan type : Progressive
    Bits/(Pixel*Frame) : 0.121
    Stream size : 3.43 GiB (86%)
    Language : English
    Default : Yes
    Forced : No
    Color primaries : BT.709-5, BT.1361, IEC 61966-2-4, SMPTE RP177
    Transfer characteristics : BT.709-5, BT.1361
    Matrix coefficients : BT.709-5, BT.1361, IEC 61966-2-4 709, SMPTE RP177

    Audio #1
    ID : 2
    Format : AC-3
    Format/Info : Audio Coding 3
    Mode extension : CM (complete main)
    Codec ID : A_AC3
    Duration : 1h 51mn
    Bit rate mode : Constant
    Bit rate : 256 Kbps
    Channel(s) : 2 channels
    Channel positions : Front: L R
    Sampling rate : 48.0 KHz
    Bit depth : 16 bits
    Compression mode : Lossy
    Stream size : 204 MiB (5%)
    Language : Russian
    Default : Yes
    Forced : No

    Audio #2
    ID : 3
    Format : AC-3
    Format/Info : Audio Coding 3
    Mode extension : CM (complete main)
    Codec ID : A_AC3
    Duration : 1h 51mn
    Bit rate mode : Constant
    Bit rate : 384 Kbps
    Channel(s) : 6 channels
    Channel positions : Front: L C R, Side: L R, LFE
    Sampling rate : 48.0 KHz
    Bit depth : 16 bits
    Compression mode : Lossy
    Stream size : 305 MiB (7%)
    Language : English
    Default : No
    Forced : No

    Text
    ID : 4
    Format : UTF-8
    Codec ID : S_TEXT/UTF8
    Codec ID/Info : UTF-8 Plain Text
    Language : Russian
    Default : Yes
    Forced : Yes

    Menu
    00:00:00.000 : en:Jimmy
    00:16:23.000 : en:Mr. Warner
    00:29:21.000 : en:New York
    00:43:02.000 : en:Chasing a Nobody
    00:59:51.000 : en:Going Home
    01:15:16.000 : en:Local Celebrity
    01:31:33.000 : en:Moody New Star
    01:45:35.000 : en:Credits
    Скриншоты:

    © Оформление by .::Ворон::.
    pb.wtf



  • Скачать Жизнь через торрент http://pic.kartinco.top/images/6/ordi9.jpg Скачать фильм Жизнь через торрент бесплантно в хорошем качестве Описание: Фотографу журнала «Life» дают задание - сделать фотографии Джеймса Дина. Мировая премьера:9 февраля 2015 ТЕХ.ДАННЫЕ: ... 10 10 3
    Торрент: Зарегистрирован [2015-12-10 13:18] · скачан: 42 раз
    Статус: T временная
    Размер: 4.01 GB
    Как cкачать? Как скачать Жизнь через торрент | qTorrent

    % Раздел Тема Автор DL S | L
    BBC [ 1.37 GB ] BBC: Прогулки с монстрами. Жизнь до динозавров / BBC: Walking With Monsters: Life Before Dinosaurs [2005 документальный DVDRip] 220v0lt Скачать
    1 | 0
    Фильмы 2009 [ 1.78 GB ] Жизнь за гранью / После жизни / After.Life [2009 BDRip-AVC] -=BIGBOSS=- Скачать
    1 | 0
    Фильмы [HD 720p, 1080p] (Хороший звук DUB, MVO) [ 8.4 GB ] Жизнь за гранью / After.Life [2009 BDRip ] Flint3 Скачать
    1 | 0
    Порно фильмы с русским переводом [ 1.42 GB ] Частная Жизнь Michelle Wild / Private Life of Michelle Wild [2003 Compilation. DVDRip] [С Русским Переводом] Pir@tya2010 Скачать
    1 | 0
    Мультсериалы [ 7.96 GB ] Жизнь с Луи / Life with Louie/3 сезона / 39 серий из 39 [1995-1998 мультфильм SATRip] PARKAN05 Скачать
    1 | 0
    Видеоуроки [ 2.33 GB ] 69 сексуальных удовольствий которые нужно попробовать в жизни / 69 sexual pleasures which are needed to make attempt in life [2009 Обучающее видео Эротика HDTV] makarevich Скачать
    1 | 2
    Документальные фильмы и телепередачи [ 2.19 GB ] Майкл Джексон: Жизнь поп-иконы / Michael Jackson: The Life of an Icon [2011 документальный HDRip лицензия] SD Скачать
    1 | 0

    28-11-2019 20:33  

    Отключить всю рекламу на сайте

      Дорогой пользователь! Огромная просьба, поблагодарите релизера, оцените раздачу и оставьте свои комментарий, если Вы скачали Жизнь через торрент бесплатно! Внесите свою лепту в развитие PiratBit!
      Комментировать посты могут только пользователи прошедшие не сложную регистрацию
      Показать сообщения:    

      Жизнь через торрент
      Скачать бесплатно Жизнь
      Жизнь скачать торрент
      Жизнь смотреть онлайн
      Cкачать фильм Жизнь бесплатно
      Жизнь скачать торрент в хорошем качестве
      Жизнь смотреть онлайн бесплатно в хорошем качестве


      Вы не можете начинать темы
      Вы не можете отвечать на сообщения
      Вы не можете редактировать свои сообщения
      Вы не можете удалять свои сообщения
      Вы не можете голосовать в опросах
      Вы не можете прикреплять файлы к сообщениям
      Вы можете скачивать файлы