Ссылка на приватное зеркало всего за 1$. Внимание количество ограничено!!!

iTunes

iTunes

iTunes

1

iTunes

iTunes

iTunes

WEBRip

iTunes

30
pack

$ от Little Big

ВАЖНО

!!Акция!!

Alien_RageХит недели

RePack

Resident Evil 21

ИГРА 18+

pack

RePack

jed

!!Акция!!

Alien_Rage

RePack

fifa19

RePack

Assassins Creed: Odyssey

RePack

NEED FOR SPEED™ PAYBACK

4 сезон

9 сезон

Бесстыжие 9 сезон

Все сериалы

все сериалы на PB.wtf

RePack

FAR CRY 5
  

Ускорение / Momentum (Стивен С. Кампанелли) [2015 г., боевик, триллер, HDRip, Дубляж "Лицензия BD RUS"] pb.wtf

Ускорение через торрент pb.wtf

Размер: 708 MB | Добавлен: 4 года 8 мес. назад | Торрент скачан:120 раз
Скачать  

10-12-2015 18:19 Ускорение Скачать торрент  

Ускорение / Momentum
Год выпуска: 2015
Страна: ЮАР, США / Azari Media, Thaba Media
Жанр: боевик, триллер
Продолжительность: 01:36:03
Перевод: Дубляж (Лицензия BD RUS)

Режиссер: Стивен С. Кампанелли

IMDB 5.50 (4326)


В ролях: Ольга Куриленко, Морган Фриман, Джеймс Пьюрфой, Дилан Эди, Дженна Сарас, Ли-Энн Саммерс, Колин Мосс, Эйдан Уайток, Мэриэн Фризелл, Брендан Мюррэй, Татьяна Шитова, Игорь Старосельцев, Алексей Мясников, Анастасия Лапина, Даниил Эльдаров

Описание: Алекс, опытная воровка, соглашается совершить свое последнее ограбление... Но все идет не по плану. Теперь ей — красивой, сильной и безжалостной femme fatale — угрожает опасность. И неудачное ограбление — не единственная проблема. Она перешла дорогу секретному международному синдикату, который ищет нечто более ценное, чем бриллианты. С этого момента для Алекс единственный способ спастись — бежать. И как можно быстрее

Качество: HDRip
Формат: AVI
Видео кодек: XviD
Аудио кодек: MP3
Видео: 640x272 (2.35:1), 23.976 fps, XviD build 50 ~893 kbps avg, 0.21 bit/pixel
Аудио: 48 kHz, MPEG Layer 3, 2 ch, ~128.00 kbps avg
скриншот   скриншот   скриншот   скриншот   скриншот  

Общее
Полное имя : F:\кино\Ускорение.2015.HDRip.700mb.avi
Формат : AVI
Формат/Информация : Audio Video Interleave
Размер файла : 708 Мбайт
Продолжительность : 1 ч. 36 м.
Общий поток : 1031 Кбит/сек
Программа кодирования : VirtualDubMod 1.5.10.3 | www.virtualdub-fr.org || (build 2550/release)
Библиотека кодирования : VirtualDubMod build 2550/release

Видео
Идентификатор : 0
Формат : MPEG-4 Visual
Профиль формата : Advanced Simple@L5
Параметр BVOP формата : 2
Параметр QPel формата : Нет
Параметр GMC формата : Без точки перехода
Параметр матрицы формата : Default (H.263)
Идентификатор кодека : XVID
Идентификатор кодека/Подсказка : XviD
Продолжительность : 1 ч. 36 м.
Битрейт : 894 Кбит/сек
Ширина : 640 пикселей
Высота : 272 пикселя
Соотношение сторон : 2,35:1
Частота кадров : 23,976 кадра/сек
Цветовое пространство : YUV
Субдискретизация насыщенности : 4:2:0
Битовая глубина : 8 бит
Тип развёртки : Прогрессивная
Метод сжатия : С потерями
Бит/(Пиксели*Кадры) : 0.214
Размер потока : 614 Мбайт (87%)
Библиотека кодирования : XviD 1.2.1 (UTC 2008-12-04)

Аудио
Идентификатор : 1
Формат : MPEG Audio
Версия формата : Version 1
Профиль формата : Layer 3
Режим : Joint stereo
Идентификатор кодека : 55
Идентификатор кодека/Подсказка : MP3
Продолжительность : 1 ч. 35 м.
Вид битрейта : Постоянный
Битрейт : 128 Кбит/сек
Каналы : 2 канала
Частота : 48,0 КГц
Метод сжатия : С потерями
Размер потока : 87,8 Мбайт (12%)
Выравнивание : Соединение по промежуткам
Продолжительность промежутка : 42 мс. (1,00 видеокадр)
Время предзагрузки промежутка : 504 мс.
Библиотека кодирования : LAME3.99r
Настройки программы : -m j -V 4 -q 2 -lowpass 17 -b 128

pb.wtf



Скачать Ускорение через торрент http://pic.kartinco.top/images/11/nwv5s.jpg Скачать фильм Ускорение через торрент бесплантно в хорошем качестве Описание: Алекс, опытная воровка, соглашается совершить свое последнее ограбление... Но все идет не по плану. Теперь ей — красивой, сильной ... 10 10 6
Торрент: Зарегистрирован [2015-12-10 18:19] · скачан: 120 раз
Статус: √ проверено
Размер: 708 MB
Как cкачать? Как скачать Ускорение через торрент | qTorrent

% Раздел Тема Автор DL S | L
Фильмы 2015 [DVDrip, WEB-DLRip, HDrip] [ 1.46 GB ] Ускорение / Momentum [2015 BDRip] DUB Twi7ter Скачать
2 | 0
Фильмы (DVD фильмы) [ 5.21 GB ] Ускорение / Momentum [2015 DVD9] R5 voovaz Скачать
1 | 0
Фильмы [HD 720p, 1080p] (Хороший звук DUB, MVO) [ 11.82 GB ] Ускорение / Momentum [2015 ЮАР BDRip 1080p от BlueBird / ] Ворон Скачать
1 | 0
Видео для КПК и Смартфонов [ 434 MB ] Ускорение / Momentum [2015 ЮАР HDRip / КПК / ] Ворон Скачать
1 | 0
Фильмы 2015 [DVDrip, WEB-DLRip, HDrip] [ 2.18 GB ] Ускорение / Momentum [2015 ЮАР BDRip-AVC от sokol_ok] DUB sokol_ok Скачать
2 | 0
Фильмы 2015 [DVDrip, WEB-DLRip, HDrip] [ 1.45 GB ] Ускорение / Momentum [2015 ЮАР BDRip-AVC от sokol_ok] DUB sokol_ok Скачать
2 | 0
Фильмы 2015 [DVDrip, WEB-DLRip, HDrip] [ 2.18 GB ] Ускорение / Momentum [2015 BDRip-AVC] DUB potroks Скачать
1 | 0

28-11-2019 20:33  

Отключить всю рекламу на сайте

10-12-2015 18:23 Ускорение Скачать торрент  

Фильм норм.почему он назван "Ускорение" непонял. Автор сп-бо.pb.wtf



    Дорогой пользователь! Огромная просьба, поблагодарите релизера, оцените раздачу и оставьте свои комментарий, если Вы скачали Ускорение через торрент бесплатно! Внесите свою лепту в развитие PiratBit!
    Комментировать посты могут только пользователи прошедшие не сложную регистрацию
    Показать сообщения:    

    Ускорение через торрент
    Скачать бесплатно Ускорение
    Ускорение скачать торрент
    Ускорение смотреть онлайн
    Cкачать фильм Ускорение бесплатно
    Ускорение скачать торрент в хорошем качестве
    Ускорение смотреть онлайн бесплатно в хорошем качестве


    Вы не можете начинать темы
    Вы не можете отвечать на сообщения
    Вы не можете редактировать свои сообщения
    Вы не можете удалять свои сообщения
    Вы не можете голосовать в опросах
    Вы не можете прикреплять файлы к сообщениям
    Вы можете скачивать файлы