Ссылка на приватное зеркало нашего сайта всего за 1$. Внимание количество ограничено!!!

2 сезон

iTunes

1 сезон

1

2 сезон

2 сезон

iTunes

1 сезон

RePack

30

Новинка

ВАЖНО

ИГРА 18+

pack

RePack

MK11
pack

Забери бонус

RePack

jed

!!Акция!!

Alien_Rage

RePack

fifa19

RePack

Assassins Creed: Odyssey

RePack

NEED FOR SPEED™ PAYBACK

4 сезон

9 сезон

Бесстыжие 9 сезон

Все сериалы

все сериалы на PB.wtf

RePack

FAR CRY 5
  

Опасная встреча / Rendez-Vous (Антуанетта Бёмер) [2015, триллер, BDRip 1080p, Любительский (двухголосый) [Sunshine Studio] pb.wtf

Опасная встреча через торрент pb.wtf

Размер: 9.21 GB | Добавлен: 4 года 11 мес. назад | Торрент скачан:47 раз
Скачать  

11-12-2015 13:33 Опасная встреча Скачать торрент  


Опасная встреча / Rendez-Vous


ИНФОРМАЦИЯ:
Год выпуска:2015
Страна: Нидерланды
Жанр: триллер
Продолжительность: 01:39:56
Перевод: Любительский (двухголосый) [Sunshine Studio]
Режиссер: Антуанетта Бёмер

В Ролях:


Пьер Буланжер (Michel), Марк ван Эувен (Eric), Питер Пол Мюллер (Peter), Лоэс Хаверкорт (Simone), Ева Дёйвестейн (Rita), Дженнифер Хоффман (Lian), Тамар Баруч (Schoolmistress), Роза Рютен (Helena), Корентен Лобе (Man in bricolage), Bobby van Vleuten (Bastian), Pieter van Terheijden (Bernard), Evi van der Laken (Suzanne)

Описание:
Симона и Эрик унаследовали старинное поместье во Франции. Они решают, что это прекрасная возможность начать новую жизнь и вдохнуть свежее дыхание в свои отношения. Эрик сразу загорается идеей устроить в поместье отель, а Симона скучает и вскоре оказывается в постели соседа - красивого молодого человека. И пока муж строит отель и грандиозные планы, жена с соседом занимаются сексом. Но рано или поздно все заканчивается, и все тайное становится явным...

  • Мировая премьера:4 июня 2015

    ТЕХ.ДАННЫЕ:
    Качество: BDRip 1080p
    Формат: MKV
    Видео: AVC, 1920x800 (2.40:1), 12413 kbps, 24 fps, 0,337 bpp
    Аудио №1: русский / AC3 / 2.0 / 48 kHz / 192 kbps / 16 bit ||
    Аудио №2: английский / AC3 / 5.1 / 48 kHz / 640 kbps / 16 bit


    General
    Unique ID : 220461369708225430684828612939751855079 (0xA5DB50BAC9E96970BDC73427AB2393E7)
    Complete name : D:\Торенты\0pa7naYa.Vs3re4a.2015.L2.BDRip.1080p.mkv
    Format : Matroska
    Format version : Version 4 / Version 2
    File size : 9.21 GiB
    Duration : 1h 39mn
    Overall bit rate : 13.2 Mbps
    Encoded date : UTC 2015-12-11 05:48:44
    Writing application : mkvmerge v8.6.1 ('Flying') 64bit
    Writing library : libebml v1.3.3 + libmatroska v1.4.4

    Video
    ID : 1
    Format : AVC
    Format/Info : Advanced Video Codec
    Format profile : High@L4.1
    Format settings, CABAC : Yes
    Format settings, ReFrames : 4 frames
    Codec ID : V_MPEG4/ISO/AVC
    Duration : 1h 39mn
    Bit rate : 12.4 Mbps
    Width : 1 920 pixels
    Height : 800 pixels
    Display aspect ratio : 2.40:1
    Frame rate : 24.000 fps
    Color space : YUV
    Chroma subsampling : 4:2:0
    Bit depth : 8 bits
    Scan type : Progressive
    Bits/(Pixel*Frame) : 0.337
    Stream size : 8.44 GiB (92%)
    Writing library : x264 core 146 r2538 121396c
    Encoding settings : cabac=1 / ref=4 / deblock=1:-3:-3 / analyse=0x3:0x113 / me=hex / subme=7 / psy=1 / psy_rd=1.00:0.00 / mixed_ref=1 / me_range=16 / chroma_me=1 / trellis=2 / 8x8dct=1 / cqm=0 / deadzone=21,11 / fast_pskip=1 / chroma_qp_offset=-2 / threads=12 / lookahead_threads=2 / sliced_threads=0 / nr=0 / decimate=1 / interlaced=0 / bluray_compat=0 / constrained_intra=0 / bframes=4 / b_pyramid=2 / b_adapt=1 / b_bias=0 / direct=1 / weightb=1 / open_gop=0 / weightp=1 / keyint=250 / keyint_min=23 / scenecut=40 / intra_refresh=0 / rc_lookahead=30 / rc=2pass / mbtree=1 / bitrate=12413 / ratetol=1.0 / qcomp=0.60 / qpmin=0 / qpmax=69 / qpstep=4 / cplxblur=20.0 / qblur=0.5 / vbv_maxrate=14000 / vbv_bufsize=14000 / nal_hrd=none / filler=0 / ip_ratio=1.40 / aq=1:1.00
    Language : Russian
    Default : Yes
    Forced : No

    Audio #1
    ID : 2
    Format : AC-3
    Format/Info : Audio Coding 3
    Mode extension : CM (complete main)
    Codec ID : A_AC3
    Duration : 1h 39mn
    Bit rate mode : Constant
    Bit rate : 192 Kbps
    Channel(s) : 2 channels
    Channel positions : Front: L R
    Sampling rate : 48.0 KHz
    Bit depth : 16 bits
    Compression mode : Lossy
    Stream size : 137 MiB (1%)
    Language : Russian
    Default : Yes
    Forced : No

    Audio #2
    ID : 3
    Format : AC-3
    Format/Info : Audio Coding 3
    Mode extension : CM (complete main)
    Codec ID : A_AC3
    Duration : 1h 39mn
    Bit rate mode : Constant
    Bit rate : 640 Kbps
    Channel(s) : 6 channels
    Channel positions : Front: L C R, Side: L R, LFE
    Sampling rate : 48.0 KHz
    Bit depth : 16 bits
    Compression mode : Lossy
    Stream size : 457 MiB (5%)
    Language : English
    Default : No
    Forced : No
    Скриншоты:

    © Оформление by .::Ворон::.
    pb.wtf



  • Скачать Опасная встреча через торрент http://pic.kartinco.top/images/6/ordi9.jpg Скачать фильм Опасная встреча через торрент бесплантно в хорошем качестве Описание: Симона и Эрик унаследовали старинное поместье во Франции. Они решают, что это прекрасная возможность начать новую жизнь и ... 8.2 10 5
    Торрент: Зарегистрирован [2015-12-11 13:33] · скачан: 47 раз
    Статус: T временная
    Размер: 9.21 GB
    Как cкачать? Как скачать Опасная встреча через торрент | qTorrent

    % Раздел Тема Автор DL S | L
    T Фильмы 2015 (Звук TS, Cam, VO, DVO) [ 1.45 GB ] Опасная встреча / Rendez-Vous [2015 HDRip Любительский [Sunshine Studio] Ворон Скачать
    1 | 0
    T Фильмы 2015 (Звук TS, Cam, VO, DVO) [ 1.47 GB ] Опасная встреча / Rendez-Vous [2015 DVDRip VO [Lord32x] Ворон Скачать
    1 | 0

    28-11-2019 20:33  

    Отключить всю рекламу на сайте

      Дорогой пользователь! Огромная просьба, поблагодарите релизера, оцените раздачу и оставьте свои комментарий, если Вы скачали Опасная встреча через торрент бесплатно! Внесите свою лепту в развитие PiratBit!
      Комментировать посты могут только пользователи прошедшие не сложную регистрацию
      Показать сообщения:    

      Опасная встреча через торрент
      Скачать бесплатно Опасная встреча
      Опасная встреча скачать торрент
      Опасная встреча смотреть онлайн
      Cкачать фильм Опасная встреча бесплатно
      Опасная встреча скачать торрент в хорошем качестве
      Опасная встреча смотреть онлайн бесплатно в хорошем качестве


      Вы не можете начинать темы
      Вы не можете отвечать на сообщения
      Вы не можете редактировать свои сообщения
      Вы не можете удалять свои сообщения
      Вы не можете голосовать в опросах
      Вы не можете прикреплять файлы к сообщениям
      Вы можете скачивать файлы