Ссылка на приватное зеркало нашего сайта всего за 1$. Внимание количество ограничено!!!

2 сезон

iTunes

1 сезон

1

iTunes

iTunes

iTunes

1 сезон

RePack

30

ИГРА 18+

pack

ВАЖНО

!!Акция!!

Alien_RageХит недели

RePack

MK11
pack

Забери бонус

RePack

jed

!!Акция!!

Alien_Rage

RePack

fifa19

RePack

Assassins Creed: Odyssey

RePack

NEED FOR SPEED™ PAYBACK

4 сезон

9 сезон

Бесстыжие 9 сезон

Все сериалы

все сериалы на PB.wtf

RePack

FAR CRY 5
  

Муфта, Полботинка и Моховая Борода (Аво Пайстик) [ 1984 , СССР , мультфильм, короткометражка , DVDRip, DUB ] pb.wtf

Муфта, Полботинка и Моховая Борода через торрент pb.wtf

Размер: 361 MB | Добавлен: 4 года 10 мес. назад | Торрент скачан:85 раз
Скачать  

12-12-2015 02:57 Муфта, Полботинка и Моховая Борода Скачать торрент  

Муфта, Полботинка и Моховая БородаГод выпуска:1984
Страна: СССР
Жанр: мультфильм, короткометражка
Продолжительность: 00:29:03
Перевод: Профессиональный (полное дублирование)

Субтитры: Нет
Режиссер: Аво Пайстик

В ролях: Аарне Юкскюла (озвучка), Урмас Кибуспуу (озвучка), Мария Клёнская (озвучка), Ита Эвер (озвучка), Гунар Килгас (озвучка)
Описание:
Мультфильм рассказывает о приключениях трех накситраллей, похожих на гномов. Вы быстро подружитесь с веселыми друзьями, которые благодаря своей находчивости выходят из всех затруднительных положений.
Рейтинг
kinopoisk.ru: 7.517 (129)
imdb.com: 7.90 (51)
Качество: DVDRip
Формат: AVI
Видео кодек: XviD
Аудио кодек: AC3
Видео: DivX 5, 640x480 (4:3), 1535 kbps, 25 fps, 0,200 bpp
Аудио: AC3 / 2.0 / 48 kHz / 192 kbps / 16 bit© Оформление by ФёдорOFF

General
Complete name : D:\раздачи\Муфта, полботинка и моховая борода\Naksitrallid_1_(1984).avi
Format : AVI
Format/Info : Audio Video Interleave
File size : 361 MiB
Duration : 29mn 3s
Overall bit rate : 1 738 Kbps
Writing application : VirtualDubMod 1.5.10.2 (build 2542/release)
Writing library : VirtualDubMod build 2542/release

Video
ID : 0
Format : MPEG-4 Visual
Format settings, BVOP : 1
Format settings, QPel : No
Format settings, GMC : No warppoints
Format settings, Matrix : Default (H.263)
Muxing mode : Packed bitstream
Codec ID : DX50
Codec ID/Hint : DivX 5
Duration : 29mn 3s
Bit rate : 1 536 Kbps
Width : 640 pixels
Height : 480 pixels
Display aspect ratio : 4:3
Frame rate : 25.000 fps
Color space : YUV
Chroma subsampling : 4:2:0
Bit depth : 8 bits
Scan type : Progressive
Compression mode : Lossy
Bits/(Pixel*Frame) : 0.200
Stream size : 319 MiB (88%)
Writing library : DivX 6.0.0 (UTC 2005-06-15)

Audio
ID : 1
Format : AC-3
Format/Info : Audio Coding 3
Mode extension : CM (complete main)
Codec ID : 2000
Duration : 29mn 3s
Bit rate mode : Constant
Bit rate : 192 Kbps
Channel(s) : 2 channels
Channel positions : Front: L R
Sampling rate : 48.0 KHz
Bit depth : 16 bits
Compression mode : Lossy
Stream size : 39.9 MiB (11%)
Alignment : Split accross interleaves
Interleave, duration : 40 ms (1.00 video frame)
Interleave, preload duration : 500 ms
pb.wtf



Скачать Муфта, Полботинка и Моховая Борода через торрент http://i4.imageban.ru/out/2015/12/12/9c85e6ab58df67d0c68956e8a86eb322.jpg Скачать фильм Муфта, Полботинка и Моховая Борода через торрент бесплантно в хорошем качестве Описание: Мультфильм рассказывает о приключениях трех накситраллей, похожих на гномов. Вы быстро подружитесь с веселыми друзьями, которые ... 9.1 10 10
Торрент: Зарегистрирован [2015-12-12 09:25] · скачан: 85 раз
Статус: √ проверено
Размер: 361 MB
Как cкачать? Как скачать Муфта, Полботинка и Моховая Борода через торрент | qTorrent

% Раздел Тема Автор DL S | L
Короткометражные мультфильмы [ 364 MB ] Муфта Полботинка и Моховая Борода 2 [ 1987 СССР мультфильм короткометражка DVDRip DUB] ФёдорOFF Скачать
1 | 0

28-11-2019 20:33  

Отключить всю рекламу на сайте

12-12-2015 11:21 Муфта, Полботинка и Моховая Борода Скачать торрент  

Читал когда-то в детстве.pb.wtf



12-12-2015 11:44 Муфта, Полботинка и Моховая Борода Скачать торрент  

мульт классссссссс кокрас для просмотра нашему айфонному поколениюpb.wtf



12-12-2015 15:17 Муфта, Полботинка и Моховая Борода Скачать торрент  

Да-а-а-а. Детство вспомнилось.pb.wtf



    Дорогой пользователь! Огромная просьба, поблагодарите релизера, оцените раздачу и оставьте свои комментарий, если Вы скачали Муфта, Полботинка и Моховая Борода через торрент бесплатно! Внесите свою лепту в развитие PiratBit!
    Комментировать посты могут только пользователи прошедшие не сложную регистрацию
    Показать сообщения:    

    Муфта, Полботинка и Моховая Борода через торрент
    Скачать бесплатно Муфта, Полботинка и Моховая Борода
    Муфта, Полботинка и Моховая Борода скачать торрент
    Муфта, Полботинка и Моховая Борода смотреть онлайн
    Cкачать фильм Муфта, Полботинка и Моховая Борода бесплатно
    Муфта, Полботинка и Моховая Борода скачать торрент в хорошем качестве
    Муфта, Полботинка и Моховая Борода смотреть онлайн бесплатно в хорошем качестве


    Вы не можете начинать темы
    Вы не можете отвечать на сообщения
    Вы не можете редактировать свои сообщения
    Вы не можете удалять свои сообщения
    Вы не можете голосовать в опросах
    Вы не можете прикреплять файлы к сообщениям
    Вы можете скачивать файлы