Ссылка на приватное зеркало нашего сайта всего за 1$. Внимание количество ограничено!!!

2 сезон

iTunes

1 сезон

1

iTunes

iTunes

iTunes

1 сезон

RePack

30

ИГРА 18+

pack

ВАЖНО

!!Акция!!

Alien_RageХит недели

RePack

MK11
pack

Забери бонус

RePack

jed

!!Акция!!

Alien_Rage

RePack

fifa19

RePack

Assassins Creed: Odyssey

RePack

NEED FOR SPEED™ PAYBACK

4 сезон

9 сезон

Бесстыжие 9 сезон

Все сериалы

все сериалы на PB.wtf

RePack

FAR CRY 5
  

Ад каннибалов / Cannibal Holocaust (Руджеро Деодато) [1980, ужасы, приключения, BDRip 1080p by msltel] MVO, 3 x AVO pb.wtf

Ад каннибалов через торрент pb.wtf

Размер: 17.08 GB | Добавлен: 4 года 10 мес. назад | Торрент скачан:43 раза
Скачать  

12-12-2015 13:34 Ад каннибалов Скачать торрент  

Название: Ад каннибалов
Оригинальное название: Cannibal Holocaust
Год выпуска: 1980
Страна: Италия
Жанр: ужасы, приключения
Продолжительность: 01:35:44
Перевод: профессиональный многоголосый, авторский

Режиссёр: Руджеро Деодато

В ролях: Роберт Керман, Франческа Кьярди, Перри Пирканен, Лука Барбарески, Сальваторе Базиле, Рикардо Фуэнтес, Карл Гэбриел Йорк, Паоло Паолони, Лионелло Пио Ди Савойя, Луиджина Рокки

Описание: Несколько молодых репортёров отправляются в дебри Амазонки, чтобы снять сенсационный фильм о последних людоедах, оставшихся на Земле. Попав туда, где не бывал ещё ни один европеец, они бесследно исчезают. Что с ними случилось? Какие ужасные секреты хранит амазонская сельва?...



Качество: BDRip 1080p Сравнение с исходником
Формат: MKV
Видео: MPEG-4 AVC, 22.8 Mбит/с, 1920x1038, 23,976 кадра/с
Аудио 1: русский, AC3, 192 kbps, 2 ch, 48 kHz [профессиональный многоголосый]
Аудио 2: русский, AC3, 192 kbps, 2 ch, 48 kHz [авторский, Сергей Визгунов]
Аудио 3: русский, AC3, 192 kbps, 2 ch, 48 kHz [авторский, Андрей Гаврилов]
Аудио 4: русский, AC3, 192 kbps, 2 ch, 48 kHz [авторский, Владимир Штейн]
Аудио 5: английский, DTS, 1509 kbps, 2 ch, 48 kHz [оригинал]
Субтитры 1: русские
Субтитры 2: английские
Общее
Уникальный идентификатор : 204447508586745752222137670833801717998 (0x99CF286B1A4CBC999536BEEF9066E8EE)
Полное имя : D:\Video\Ад каннибалов.1980.BDRip.1080p.mkv
Формат : Matroska
Версия формата : Version 4 / Version 2
Размер файла : 17,1 Гбайт
Продолжительность : 1 ч. 35 м.
Общий поток : 25,5 Мбит/сек
Дата кодирования : UTC 2015-12-12 12:04:39
Программа кодирования : mkvmerge v8.2.0 ('World of Adventure') 64bit
Библиотека кодирования : libebml v1.3.1 + libmatroska v1.4.2
DURATION : 01:35:44.278000000
NUMBER_OF_FRAMES : 538526
NUMBER_OF_BYTES : 1083514376
_STATISTICS_WRITING_APP : mkvmerge v8.2.0 ('World of Adventure') 64bit
_STATISTICS_WRITING_DATE_UTC : 2015-12-12 12:04:39
_STATISTICS_TAGS : BPS DURATION NUMBER_OF_FRAMES NUMBER_OF_BYTES

Видео
Идентификатор : 1
Формат : AVC
Формат/Информация : Advanced Video Codec
Профиль формата : High@L4.1
Параметр CABAC формата : Да
Параметр ReFrames формата : 4 кадра
Идентификатор кодека : V_MPEG4/ISO/AVC
Продолжительность : 1 ч. 35 м.
Битрейт : 22,8 Мбит/сек
Ширина : 1920 пикселей
Высота : 1038 пикселей
Соотношение сторон : 1,85:1
Режим частоты кадров : Постоянный
Частота кадров : 23,976 кадра/сек
Цветовое пространство : YUV
Субдискретизация насыщенности : 4:2:0
Битовая глубина : 8 бит
Тип развёртки : Прогрессивная
Бит/(Пиксели*Кадры) : 0.476
Размер потока : 15,2 Гбайт (89%)
Заголовок : BDRip by msltel
Библиотека кодирования : x264 core 146 r2538 121396c
Настройки программы : cabac=1 / ref=4 / deblock=1:-3:-3 / analyse=0x3:0x113 / me=umh / subme=10 / psy=1 / psy_rd=1.00:0.15 / mixed_ref=1 / me_range=32 / chroma_me=1 / trellis=2 / 8x8dct=1 / cqm=0 / deadzone=21,11 / fast_pskip=1 / chroma_qp_offset=-3 / threads=6 / lookahead_threads=1 / sliced_threads=0 / nr=0 / decimate=1 / interlaced=0 / bluray_compat=0 / constrained_intra=0 / bframes=10 / b_pyramid=2 / b_adapt=2 / b_bias=0 / direct=1 / weightb=1 / open_gop=0 / weightp=2 / keyint=230 / keyint_min=23 / scenecut=40 / intra_refresh=0 / rc_lookahead=40 / rc=crf / mbtree=0 / crf=20.0 / qcomp=0.60 / qpmin=0 / qpmax=69 / qpstep=4 / vbv_maxrate=40000 / vbv_bufsize=50000 / crf_max=0.0 / nal_hrd=none / filler=0 / ip_ratio=1.40 / pb_ratio=1.30 / aq=1:1.00
Язык : English
Default : Да
Forced : Нет
DURATION : 01:35:44.281000000
NUMBER_OF_FRAMES : 137725
NUMBER_OF_BYTES : 16703056716
_STATISTICS_WRITING_APP : mkvmerge v8.2.0 ('World of Adventure') 64bit
_STATISTICS_WRITING_DATE_UTC : 2015-12-12 12:04:39
_STATISTICS_TAGS : BPS DURATION NUMBER_OF_FRAMES NUMBER_OF_BYTES

Аудио #1
Идентификатор : 2
Формат : AC-3
Формат/Информация : Audio Coding 3
Расширение режима : CM (complete main)
Параметр Endianness формата : Big
Идентификатор кодека : A_AC3
Продолжительность : 1 ч. 35 м.
Вид битрейта : Постоянный
Битрейт : 192 Кбит/сек
Каналы : 2 канала
Расположение каналов : Front: L R
Частота : 48,0 КГц
Метод сжатия : С потерями
Размер потока : 131 Мбайт (1%)
Заголовок : MVO
Язык : Russian
Default : Да
Forced : Нет

Аудио #2
Идентификатор : 3
Формат : AC-3
Формат/Информация : Audio Coding 3
Расширение режима : CM (complete main)
Параметр Endianness формата : Big
Идентификатор кодека : A_AC3
Продолжительность : 1 ч. 35 м.
Вид битрейта : Постоянный
Битрейт : 192 Кбит/сек
Каналы : 2 канала
Расположение каналов : Front: L R
Частота : 48,0 КГц
Метод сжатия : С потерями
Размер потока : 131 Мбайт (1%)
Заголовок : AVO (Сергей Визгунов)
Язык : Russian
Default : Нет
Forced : Нет

Аудио #3
Идентификатор : 4
Формат : AC-3
Формат/Информация : Audio Coding 3
Расширение режима : CM (complete main)
Параметр Endianness формата : Big
Идентификатор кодека : A_AC3
Продолжительность : 1 ч. 35 м.
Вид битрейта : Постоянный
Битрейт : 192 Кбит/сек
Каналы : 2 канала
Расположение каналов : Front: L R
Частота : 48,0 КГц
Метод сжатия : С потерями
Размер потока : 131 Мбайт (1%)
Заголовок : AVO (Андрей Гаврилов)
Язык : Russian
Default : Нет
Forced : Нет

Аудио #4
Идентификатор : 5
Формат : AC-3
Формат/Информация : Audio Coding 3
Расширение режима : CM (complete main)
Параметр Endianness формата : Big
Идентификатор кодека : A_AC3
Продолжительность : 1 ч. 35 м.
Вид битрейта : Постоянный
Битрейт : 192 Кбит/сек
Каналы : 2 канала
Расположение каналов : Front: L R
Частота : 48,0 КГц
Метод сжатия : С потерями
Размер потока : 131 Мбайт (1%)
Заголовок : AVO (Владимир Штейн)
Язык : Russian
Default : Нет
Forced : Нет

Аудио #5
Идентификатор : 6
Формат : DTS
Формат/Информация : Digital Theater Systems
Режим : 16
Параметр Endianness формата : Big
Идентификатор кодека : A_DTS
Продолжительность : 1 ч. 35 м.
Вид битрейта : Постоянный
Битрейт : 1509 Кбит/сек
Каналы : 2 канала
Расположение каналов : Front: L R
Частота : 48,0 КГц
Битовая глубина : 24 бит
Метод сжатия : С потерями
Размер потока : 1,01 Гбайт (6%)
Заголовок : Original
Язык : English
Default : Нет
Forced : Нет

Текст #1
Идентификатор : 7
Формат : UTF-8
Идентификатор кодека : S_TEXT/UTF8
Идентификатор кодека/Информация : UTF-8 Plain Text
Заголовок : русский
Язык : Russian
Default : Нет
Forced : Нет

Текст #2
Идентификатор : 8
Формат : UTF-8
Идентификатор кодека : S_TEXT/UTF8
Идентификатор кодека/Информация : UTF-8 Plain Text
Заголовок : английский
Default : Нет
Forced : Нет
pb.wtf



Скачать Ад каннибалов через торрент http://s020.radikal.ru/i701/1512/19/f4042f2e486c.png Скачать фильм Ад каннибалов через торрент бесплантно в хорошем качестве Описание: Несколько молодых репортёров отправляются в дебри Амазонки, чтобы снять сенсационный фильм о последних людоедах, оставшихся на ... 10 10 4
Info! Золотая раздача, скачанное не засчитывается.
Торрент: Зарегистрирован [2015-12-12 13:34] · скачан: 43 раз
Статус: √ проверено
Размер: 17.08 GB
Как cкачать? Как скачать Ад каннибалов через торрент | qTorrent

% Раздел Тема Автор DL S | L
Фильмы [HD 720p, 1080p] (Хороший звук DUB, MVO) [ 6.99 GB ] Ад каннибалов / Cannibal Holocaust [1980 BDRip 720p by msltel] MVO 3 x AVO msltel Скачать
1 | 0
Фильмы до 2000 г. [ 4.49 GB ] Ад каннибалов / Cannibal Holocaust [1980 BDRip AVC by msltel] MVO 3 x AVO msltel Скачать
1 | 0

28-11-2019 20:33  

Отключить всю рекламу на сайте

12-12-2015 14:36 Ад каннибалов Скачать торрент  

Цитата:

Ад каннибалов / Cannibal Holocaust (Руджеро Деодато) [1980, ужасы, приключения, BDRip 1080p by msltel] MVO, 3 x AVO

Не смотрите, мерзость редкостнаяpb.wtf



13-12-2015 07:38 Ад каннибалов Скачать торрент  

Vitaliy19751975 писал(а):

Цитата:

Ад каннибалов / Cannibal Holocaust (Руджеро Деодато) [1980, ужасы, приключения, BDRip 1080p by msltel] MVO, 3 x AVO

Не смотрите, мерзость редкостная

Уже посмотрели, 20 лет назад !pb.wtf



14-12-2015 00:15 Ад каннибалов Скачать торрент  

об этом фильме писали, что в суд на режиссера подали, думая что сцены натуральныеpb.wtf



06-03-2016 05:15 Ад каннибалов Скачать торрент  

Ад каннибалов full hd
включи раздачу плизpb.wtf



    Дорогой пользователь! Огромная просьба, поблагодарите релизера, оцените раздачу и оставьте свои комментарий, если Вы скачали Ад каннибалов через торрент бесплатно! Внесите свою лепту в развитие PiratBit!
    Комментировать посты могут только пользователи прошедшие не сложную регистрацию
    Показать сообщения:    

    Ад каннибалов через торрент
    Скачать бесплатно Ад каннибалов
    Ад каннибалов скачать торрент
    Ад каннибалов смотреть онлайн
    Cкачать фильм Ад каннибалов бесплатно
    Ад каннибалов скачать торрент в хорошем качестве
    Ад каннибалов смотреть онлайн бесплатно в хорошем качестве


    Вы не можете начинать темы
    Вы не можете отвечать на сообщения
    Вы не можете редактировать свои сообщения
    Вы не можете удалять свои сообщения
    Вы не можете голосовать в опросах
    Вы не можете прикреплять файлы к сообщениям
    Вы можете скачивать файлы