Ссылка на приватное зеркало всего за 1$. Внимание количество ограничено!!!

OK

1+1

iTunes

мы

OK

1

WEB-DLRip

Джокер

Пифагор

Ведьмак / The Witcher сериал

Лицензия

ПШазам

ОК

Оно 2

iTunes

30
pack

Вам бонус

ВАЖНО

!!Акция!!

Alien_RageХит недели

RePack

Resident Evil 21

ИГРА 18+

pack

RePack

jed

!!Акция!!

Alien_Rage

RePack

fifa19

RePack

Assassins Creed: Odyssey

RePack

NEED FOR SPEED™ PAYBACK

4 сезон

9 сезон

Бесстыжие 9 сезон

Все сериалы

все сериалы на PB.wtf

RePack

FAR CRY 5
  

Скорость: Автобус 657 / Heist (Скотт Манн / Scott Mann) [2015, США, боевик, триллер, криминал, BDRip-AVC от sokol_ok] DUB Лицензия pb.wtf

Скорость: Автобус 657 через торрент pb.wtf

Раздают: 1 [ 0 KB/s ]
Размер: 1.46 GB | Добавлен: 3 года 11 мес. назад | Торрент скачан:143 раза
Скачать  

13-12-2015 11:55 Скорость: Автобус 657 Скачать торрент  

Скорость: Автобус 657
Heist

«Её жизнь дороже его смерти»


Страна: США
Жанр: боевик, триллер, криминал

Год выпуска: 2015
Продолжительность: 01:32:19

Перевод: Профессиональный (полное дублирование) [Лицензия BD RUS]
Субтитры: английские
Оригинальная аудиодорожка: нет

Режиссер: Скотт Манн / Scott Mann

В ролях: Джеффри Дин Морган, Роберт Де Ниро, Кейт Босворт, Дэйв Батиста, Джина Карано, Моррис Честнат, Марк-Пол Госселаар, Д.Б. Суини, Саммер Элтис, Алисса Джулия Смит, Лидия Халл, Кортни Би Турк

Описание:
Все знают, что обокрасть Фрэнка Поупа, владельца казино и босса мафии - это самоубийство. Но однажды некогда преданный ему крупье решается вынести из кассы казино несколько миллионов долларов. Все было продумано, но план не сработал. Скрываясь с места преступления, грабители захватывают автобус, полный заложников. На бешеной скорости автобус мчится к мексиканской границе. Топливо на пределе. На хвосте - мафия и полиция. И, кажется, выхода нет... Релиз:

Автор рипа: Stalker oK

Сэмпл

Качество видео: BDRip-AVC [bluebird / Blu-ray Disc / 1080p]
Формат видео: MKV
Видео кодек: AVC
Аудио кодек: AC3
Видео: 1819 Кбит/сек, 1008x420 (2.40:1), 23,976 кадр/сек, AVC
Аудио: Russian, 448 Кбит/сек, 48,0 КГц, 6 каналов, AC-3
Навигация по главам: есть

Общее
Уникальный идентификатор : 171618430246801837443821258032183093341 (0x811C81E3CB2A98AC9EC215FEF961A85D)
Полное имя : M:\Rips\Heist\1\Heist.2015.BDRip-AVC.Dub.1.45Gb.stalkerok.new-team.mkv
Формат : Matroska
Версия формата : Version 4 / Version 2
Размер файла : 1,46 Гбайт
Продолжительность : 1 ч. 32 м.
Общий поток : 2265 Кбит/сек
Название фильма : Heist (2015) (New-Team) (Rip by Stalker oK)
Дата кодирования : UTC 2016-01-28 08:21:22
Программа кодирования : mkvmerge v8.6.1 ('Flying') 64bit
Библиотека кодирования : libebml v1.3.3 + libmatroska v1.4.4

Видео
Идентификатор : 1
Формат : AVC
Формат/Информация : Advanced Video Codec
Профиль формата : High@L4.1
Параметр CABAC формата : Да
Параметр ReFrames формата : 13 кадров
Идентификатор кодека : V_MPEG4/ISO/AVC
Продолжительность : 1 ч. 32 м.
Битрейт : 1819 Кбит/сек
Ширина : 1008 пикселей
Высота : 420 пикселей
Соотношение сторон : 2,40:1
Режим частоты кадров : Постоянный
Частота кадров : 23,976 (24000/1001) кадра/сек
Цветовое пространство : YUV
Субдискретизация насыщенности : 4:2:0
Битовая глубина : 8 бит
Тип развёртки : Прогрессивная
Бит/(Пиксели*Кадры) : 0.179
Размер потока : 1,17 Гбайт (80%)
Заголовок : Heist (2015) (New-Team) (Rip by Stalker oK)
Библиотека кодирования : x264 core 148 r2638 7599210
Настройки программы : cabac=1 / ref=13 / deblock=1:-3:-3 / analyse=0x3:0x133 / me=umh / subme=11 / psy=1 / psy_rd=1.00:0.10 / mixed_ref=1 / me_range=48 / chroma_me=1 / trellis=2 / 8x8dct=1 / cqm=0 / deadzone=21,11 / fast_pskip=0 / chroma_qp_offset=-3 / threads=12 / lookahead_threads=3 / sliced_threads=0 / nr=0 / decimate=0 / interlaced=0 / bluray_compat=0 / constrained_intra=0 / bframes=14 / b_pyramid=2 / b_adapt=2 / b_bias=0 / direct=3 / weightb=1 / open_gop=0 / weightp=2 / keyint=240 / keyint_min=23 / scenecut=40 / intra_refresh=0 / rc_lookahead=60 / rc=2pass / mbtree=0 / bitrate=1819 / ratetol=1.0 / qcomp=0.70 / qpmin=0 / qpmax=69 / qpstep=4 / cplxblur=20.0 / qblur=0.5 / vbv_maxrate=50000 / vbv_bufsize=62500 / nal_hrd=none / filler=0 / ip_ratio=1.40 / pb_ratio=1.30 / aq=3:0.90
Default : Да
Forced : Нет

Аудио
Идентификатор : 2
Формат : AC-3
Формат/Информация : Audio Coding 3
Расширение режима : CM (complete main)
Параметр Endianness формата : Big
Идентификатор кодека : A_AC3
Продолжительность : 1 ч. 32 м.
Вид битрейта : Постоянный
Битрейт : 448 Кбит/сек
Каналы : 6 каналов
Расположение каналов : Front: L C R, Side: L R, LFE
Частота : 48,0 КГц
Частота кадров : 31,250 кадров/сек (1536 spf)
Метод сжатия : С потерями
Размер потока : 296 Мбайт (20%)
Заголовок : Blu-Ray RUS
Язык : Russian
Default : Да
Forced : Нет

Текст
Идентификатор : 3
Формат : UTF-8
Идентификатор кодека : S_TEXT/UTF8
Идентификатор кодека/Информация : UTF-8 Plain Text
Продолжительность : 1 ч. 24 м.
Битрейт : 76 бит/сек
Count of elements : 1102
Размер потока : 47,0 Кбайт (0%)
Язык : English
Default : Нет
Forced : Нет

Меню
00:00:00.000 : en:Chapter 1
00:06:23.841 : en:Chapter 2
00:11:36.654 : en:Chapter 3
00:18:00.412 : en:Chapter 4
00:27:25.769 : en:Chapter 5
00:34:27.065 : en:Chapter 6
00:44:30.209 : en:Chapter 7
00:54:44.030 : en:Chapter 8
01:03:00.443 : en:Chapter 9
01:09:18.154 : en:Chapter 10
01:18:53.145 : en:Chapter 11
01:26:54.334 : en:Chapter 12
pb.wtf



Скачать Скорость: Автобус 657 через торрент http://i72.fastpic.ru/big/2015/0531/46/68ef8a2783b58e5344cc30bbd3f1b046.png Скачать фильм Скорость: Автобус 657 через торрент бесплантно в хорошем качестве Описание:Все знают, что обокрасть Фрэнка Поупа, владельца казино и босса мафии - это самоубийство. Но однажды некогда преданный ему крупье ... 10 10 9
Info! Золотая раздача, скачанное не засчитывается.
Торрент: Зарегистрирован [2016-01-28 09:01] · скачан: 143 раз
Статус: √ проверено
Размер: 1.46 GB
Как cкачать? Как скачать Скорость: Автобус 657 через торрент | qTorrent

% Раздел Тема Автор DL S | L
Фильмы 2015 [DVDrip, WEB-DLRip, HDrip] [ 2.18 GB ] Скорость: Автобус 657 / Heist [2015 BDRip-AVC от sokol_ok] DUB sokol_ok Скачать
2 | 0
Фильмы 2015 [DVDrip, WEB-DLRip, HDrip] [ 1.46 GB ] Скорость: Автобус 657 / Heist [2015 BDRip-AVC] DUB potroks Скачать
1 | 0
Фильмы 2015 [DVDrip, WEB-DLRip, HDrip] [ 2.18 GB ] Скорость: Автобус 657 / Heist [2015 BDRip-AVC] DUB potroks Скачать
1 | 0

28-11-2019 20:33  

Отключить всю рекламу на сайте

28-01-2016 09:01 Скорость: Автобус 657 Скачать торрент  

Торрент файл перезалит. Лицензия iTunes заменена на лицензию Blu-ray RUS.pb.wtf



    Дорогой пользователь! Огромная просьба, поблагодарите релизера, оцените раздачу и оставьте свои комментарий, если Вы скачали Скорость: Автобус 657 через торрент бесплатно! Внесите свою лепту в развитие PiratBit!
    Комментировать посты могут только пользователи прошедшие не сложную регистрацию
    Показать сообщения:    

    Скорость: Автобус 657 через торрент
    Скачать бесплатно Скорость: Автобус 657
    Скорость: Автобус 657 скачать торрент
    Скорость: Автобус 657 смотреть онлайн
    Cкачать фильм Скорость: Автобус 657 бесплатно
    Скорость: Автобус 657 скачать торрент в хорошем качестве
    Скорость: Автобус 657 смотреть онлайн бесплатно в хорошем качестве


    Вы не можете начинать темы
    Вы не можете отвечать на сообщения
    Вы не можете редактировать свои сообщения
    Вы не можете удалять свои сообщения
    Вы не можете голосовать в опросах
    Вы не можете прикреплять файлы к сообщениям
    Вы можете скачивать файлы