Ссылка на приватное зеркало нашего сайта всего за 1$. Внимание количество ограничено!!!

2 сезон

iTunes

1 сезон

1

iTunes

iTunes

iTunes

1 сезон

RePack

30

ИГРА 18+

pack

ВАЖНО

!!Акция!!

Alien_RageХит недели

RePack

MK11
pack

Забери бонус

RePack

jed

!!Акция!!

Alien_Rage

RePack

fifa19

RePack

Assassins Creed: Odyssey

RePack

NEED FOR SPEED™ PAYBACK

4 сезон

9 сезон

Бесстыжие 9 сезон

Все сериалы

все сериалы на PB.wtf

RePack

FAR CRY 5
  

Скорость: Автобус 657 / Heist (Скотт Манн) [2015 г., Боевик, триллер, BDRip 1080p, Дубляж Лицензия / iTunes] pb.wtf

Скорость: Автобус 657 через торрент pb.wtf

Размер: 6.81 GB | Добавлен: 4 года 10 мес. назад | Торрент скачан:261 раз
Скачать  

13-12-2015 14:48 Скорость: Автобус 657 Скачать торрент  

Скорость: Автобус 657 / Heist
Год выпуска: 2015
Страна: США
Жанр: Боевик, триллер
Продолжительность: 01:32:19
Перевод: Дубляж Лицензия / iTunes+ Оригинал
Субтитры: Нет

Режиссер: Скотт Манн

В ролях: Джеффри Дин Морган, Роберт Де Ниро, Кейт Босворт, Дэйв Батиста, Джина Карано, Марк-Пол Госселаар, Моррис Честнат, Д.Б. Суини, Саммер Элтис, Лидия Халл

Описание: Все знают, что обокрасть Фрэнка Поупа, владельца казино и босса мафии — это самоубийство. Но однажды некогда преданный ему крупье решается вынести из кассы казино несколько миллионов долларов. Все было продумано, но план не сработал. Скрываясь с места преступления, грабители захватывают автобус, полный заложников. На бешеной скорости автобус мчится к мексиканской границе. Топливо на пределе. На хвосте — мафия и полиция. И, кажется, выхода нет…

Качество: BDRip 1080p
Формат: MKV
Видео кодек: AVC
Аудио кодек: AC3-DTS
Видео: MPEG-4 AVC, (1920x800),8663 Кбит/с, 23.976 кадра/сек
Аудио#1: AC3, 6 ch,384 kbps (Rus) 48.0 KHz Дублированный (лицензия iTunes)
Аудио#2: DTS, 6 ch,1509 kbps (Eng) 48.0 KHz Оригинал
скриншот   скриншот   скриншот  

Тип потока: Видео
Длительность: 01:32:18
Кодек: AVC
Кодек/описание: Advanced Video Codec
Кодек/профиль: High@L4.1
Кодек/ID: V_MPEG4/ISO/AVC
Кодек/CABAC: Yes
Кодек/ReFrames: 5 frames
Размеры изображения: 1920 x 800 (2.40:1)
Частота кадров: 23.976 fps
Частота кадров/тип: Constant
Размер потока: 5.45 GiB (80%)
Битрейт: 8 663 Kbps
Библиотека кодирования: x264 core 148 r2638 7599210
Цветовое пространство: YUV
Тип развёртки: Progressive
Колориметрия: 4:2:0
Глубина: 8 bits

Тип потока: Звук #1
Язык: Russian
Название: Дублированный (iTunes)
Длительность: 01:32:18.998
Кодек: AC-3
Кодек/описание: Audio Coding 3
Кодек/ID: A_AC3
Частота дискретизации: 48.0 KHz
Каналов: 6 channels
Битрейт: 384 Kbps
Битрейт/тип: Constant
Размер потока: 254 MiB (4%)
Глубина: 16 bits
Метод сжатия: Lossy
:
Тип потока: Звук #2
Язык: English
Длительность: 01:32:18.998
Кодек: DTS
Кодек/описание: Digital Theater Systems
Кодек/ID: A_DTS
Частота дискретизации: 48.0 KHz
Каналов: 6 channels
Битрейт: 1 509 Kbps
Битрейт/тип: Constant
Размер потока: 996 MiB (14%)
Глубина: 24 bits
Метод сжатия: Lossy

pb.wtf



Скачать Скорость: Автобус 657 через торрент http://pic1.kartinco.top/images/10/dcmgi.jpg Скачать фильм Скорость: Автобус 657 через торрент бесплантно в хорошем качестве Описание: Все знают, что обокрасть Фрэнка Поупа, владельца казино и босса мафии — это самоубийство. Но однажды некогда преданный ему крупье ... 10 10 6
Торрент: Зарегистрирован [2015-12-13 14:48] · скачан: 261 раз
Статус: T временная
Размер: 6.81 GB
Как cкачать? Как скачать Скорость: Автобус 657 через торрент | qTorrent

% Раздел Тема Автор DL S | L
Фильмы [HD 720p, 1080p] (Хороший звук DUB, MVO) [ 4.41 GB ] Скорость: Автобус 657 / Heist [2015 BDRip 720p] [GER Transfer] DUB + AVO - KORSAR kisa1980 Скачать
2 | 0
Фильмы 2015 [DVDrip, WEB-DLRip, HDrip] [ 696 MB ] Скорость: Автобус 657 / Heist [2015 HDRip ""] coc900 Скачать
1 | 0
Фильмы 2015 [DVDrip, WEB-DLRip, HDrip] [ 1.46 GB ] Скорость: Автобус 657 / Heist [2015 BDRip] - [] Twi7ter Скачать
1 | 0
Фильмы (Blu-ray, BD-Remux, HDDVD) [ 16.54 GB ] Скорость: Автобус 657 / Heist [2015 Blu-ray 1080i Rus Transfer ] MihailHD Скачать
1 | 1
Фильмы 2015 [DVDrip, WEB-DLRip, HDrip] [ 2.18 GB ] Скорость: Автобус 657 / Heist [2015 BDRip-AVC от sokol_ok] DUB sokol_ok Скачать
2 | 0
Фильмы 2015 [DVDrip, WEB-DLRip, HDrip] [ 1.46 GB ] Скорость: Автобус 657 / Heist [2015 BDRip-AVC от sokol_ok] DUB sokol_ok Скачать
2 | 0
Фильмы 2015 [DVDrip, WEB-DLRip, HDrip] [ 1.46 GB ] Скорость: Автобус 657 / Heist [2015 BDRip] - [] Twi7ter Скачать
1 | 0


Последний раз редактировалось: Бумер (2015-12-13 17:05), всего редактировалось 1 раз

28-11-2019 20:33  

Отключить всю рекламу на сайте

13-12-2015 15:23 Скорость: Автобус 657 Скачать торрент  

Цитата:

cabac=1 / ref=5 / deblock=1:0:0 / analyse=0x3:0x133 / me=umh / subme=7 / psy=1 / psy_rd=1.00:0.00 / mixed_ref=1 / me_range=16 / chroma_me=1 / trellis=1 / 8x8dct=1 / cqm=0 / deadzone=21,11 / fast_pskip=0 / chroma_qp_offset=-2 / threads=12 / lookahead_threads=2 / sliced_threads=0 / nr=0 / decimate=1 / interlaced=0 / bluray_compat=0 / constrained_intra=0 / bframes=3 / b_pyramid=2 / b_adapt=2 / b_bias=0 / direct=3 / weightb=1 / open_gop=0 / weightp=2 / keyint=250 / keyint_min=23 / scenecut=40 / intra_refresh=0 / rc_lookahead=50 / rc=2pass / mbtree=1 / bitrate=8663 / ratetol=1.0 / qcomp=0.60 / qpmin=0 / qpmax=69 / qpstep=4 / cplxblur=20.0 / qblur=0.5 / ip_ratio=1.40 / aq=1:1.00

Т - Временная
Запрет на размещение рипов ненадлежащего качества pb.wtf



21-12-2015 13:52 Скорость: Автобус 657 Скачать торрент  

А мне фильм понравился, смотрел с удовольствием. Даже присутствует мораль, весьма необычное явление для современных боевичков ).
Мне кажется особый шарм фильму придает отсутствие типичных героев боевиков в ролях. Де Ниро лишь в эпизодах.pb.wtf



28-12-2015 12:29 Скорость: Автобус 657 Скачать торрент  

Мне тоже фильм понравился ! Это не боевик . Фильм про человека , который ради семьи готов пожертвовать собой . Не типичный американский фильм . Так наши раньше только снимали !pb.wtf



    Дорогой пользователь! Огромная просьба, поблагодарите релизера, оцените раздачу и оставьте свои комментарий, если Вы скачали Скорость: Автобус 657 через торрент бесплатно! Внесите свою лепту в развитие PiratBit!
    Комментировать посты могут только пользователи прошедшие не сложную регистрацию
    Показать сообщения:    

    Скорость: Автобус 657 через торрент
    Скачать бесплатно Скорость: Автобус 657
    Скорость: Автобус 657 скачать торрент
    Скорость: Автобус 657 смотреть онлайн
    Cкачать фильм Скорость: Автобус 657 бесплатно
    Скорость: Автобус 657 скачать торрент в хорошем качестве
    Скорость: Автобус 657 смотреть онлайн бесплатно в хорошем качестве


    Вы не можете начинать темы
    Вы не можете отвечать на сообщения
    Вы не можете редактировать свои сообщения
    Вы не можете удалять свои сообщения
    Вы не можете голосовать в опросах
    Вы не можете прикреплять файлы к сообщениям
    Вы можете скачивать файлы