Доктор Стрэндж

Лицензия

Добыча

Дубляж

Уэнсдэй

1 сезон

Тор

Дубляж

В эфире

Дубляж

Там, где раки поют

MVO

Властелин колец

1 сезон

Deluxe

pack

Рекомендуем

30

Пиратка

ВАЖНО

ВАЖНО

Ghostwire

Пиратка

jed

RePack

nioh2

RePack

RDR2

RePack

NEED FOR SPEED™ PAYBACK

RePack

скачать торрент

Кинопоиск HD

Острые козырьки 6 сезон

6 сезон

FAR CRY 6

RePack

скачать торрент

Лицензия

скачать торрент

MVO

1

1 сезон

скачать торрент

1 сезон

скачать торрент

Лицензия

  

Другая жизнь женщины / La vie d'une autre (Сильви Тестю) [2012, драма, мелодрама, комедия, детектив, BDRip 720p ] MVO

Другая жизнь женщины через торрент pb.wtf

Размер: 3.29 GB | Добавлен: 6 лет 11 мес. назад | Торрент скачан:24 раза
Смотреть онлайн | Скачать   

14-12-2015 07:40 Другая жизнь женщины Скачать торрент  

Название: Другая жизнь женщины
Оригинальное название: La vie d'une autre
Год выпуска: 2012
Страна: Франция, Люксембург, Бельгия
Жанр: драма, мелодрама, комедия, детектив
Продолжительность: 01:37:33
Перевод: профессиональный многоголосый

Режиссёр: Сильви Тестю

В ролях: Жюльетт Бинош, Матьё Кассовиц, Ор Атика, Даниель Лебрюн, Вернон Добчефф, Ив Дашари-Ле Беон, Франсуа Берлеан, Мари-Кристин Адам, Николас Карпентье, Альберт Спайнер, Дидье Рэймонд, Сильви Эрбер, Эрик Пра, Марина Томе

Описание: Мари исполнилось 40. Но странный эффект: однажды утром она проснулась с ощущением, что 15 последних лет её жизни как не бывало. А та любовь, которая на самом деле уже подходит к концу (до развода 4 дня) ещё только начинается. Можно ли вернуть прошлое за 4 дня и что такое ты, прежняя, застенчивая провинциалка в роли преуспевающей бизнес-леди? Фильм по произведению Фредерик Деге.



Качество: BDRip 720p Сравнение с исходником
Формат: MKV
Видео: MPEG-4 AVC, 4063 Кбит/с, 1280x546, 23,976 кадра/с
Аудио 1: русский, AC3, 224 kbps, 2 ch, 48 kHz [профессиональный многоголосый]
Аудио 2: французский, AC3, 448 kbps, 6 ch, 48 kHz [оригинал]
Субтитры: русские (kitmur)
Общее
Уникальный идентификатор : 198179767486343135649378341037444579628 (0x951808EC6989E9A0AD36792DEEBA412C)
Полное имя : D:\Video\Другая жизнь женщины.2012.BDRip.720p.mkv
Формат : Matroska
Версия формата : Version 4 / Version 2
Размер файла : 3,29 Гбайт
Продолжительность : 1 ч. 37 м.
Общий поток : 4831 Кбит/сек
Дата кодирования : UTC 2015-12-14 03:43:23
Программа кодирования : mkvmerge v8.2.0 ('World of Adventure') 64bit
Библиотека кодирования : libebml v1.3.1 + libmatroska v1.4.2
DURATION : 01:32:18.704000000
NUMBER_OF_FRAMES : 768
NUMBER_OF_BYTES : 44642
_STATISTICS_WRITING_APP : mkvmerge v8.2.0 ('World of Adventure') 64bit
_STATISTICS_WRITING_DATE_UTC : 2015-12-14 03:43:23
_STATISTICS_TAGS : BPS DURATION NUMBER_OF_FRAMES NUMBER_OF_BYTES

Видео
Идентификатор : 1
Формат : AVC
Формат/Информация : Advanced Video Codec
Профиль формата : [email protected]
Параметр CABAC формата : Да
Параметр ReFrames формата : 9 кадров
Идентификатор кодека : V_MPEG4/ISO/AVC
Продолжительность : 1 ч. 37 м.
Битрейт : 4063 Кбит/сек
Ширина : 1280 пикселей
Высота : 546 пикселей
Соотношение сторон : 2,35:1
Режим частоты кадров : Постоянный
Частота кадров : 23,976 кадра/сек
Цветовое пространство : YUV
Субдискретизация насыщенности : 4:2:0
Битовая глубина : 8 бит
Тип развёртки : Прогрессивная
Бит/(Пиксели*Кадры) : 0.242
Размер потока : 2,77 Гбайт (84%)
Заголовок : BDRip by msltel
Библиотека кодирования : x264 core 146 r2538 121396c
Настройки программы : cabac=1 / ref=9 / deblock=1:-1:-1 / analyse=0x3:0x113 / me=umh / subme=10 / psy=1 / psy_rd=1.00:0.15 / mixed_ref=1 / me_range=32 / chroma_me=1 / trellis=2 / 8x8dct=1 / cqm=0 / deadzone=21,11 / fast_pskip=1 / chroma_qp_offset=-3 / threads=6 / lookahead_threads=1 / sliced_threads=0 / nr=0 / decimate=1 / interlaced=0 / bluray_compat=0 / constrained_intra=0 / bframes=8 / b_pyramid=2 / b_adapt=2 / b_bias=0 / direct=1 / weightb=1 / open_gop=0 / weightp=2 / keyint=230 / keyint_min=23 / scenecut=40 / intra_refresh=0 / rc_lookahead=40 / rc=crf / mbtree=0 / crf=16.5 / qcomp=0.60 / qpmin=0 / qpmax=69 / qpstep=4 / vbv_maxrate=40000 / vbv_bufsize=50000 / crf_max=0.0 / nal_hrd=none / filler=0 / ip_ratio=1.40 / pb_ratio=1.30 / aq=1:1.00
Язык : French
Default : Да
Forced : Нет
DURATION : 01:37:33.306000000
NUMBER_OF_FRAMES : 140339
NUMBER_OF_BYTES : 3041235169
_STATISTICS_WRITING_APP : mkvmerge v8.2.0 ('World of Adventure') 64bit
_STATISTICS_WRITING_DATE_UTC : 2015-12-14 03:43:23
_STATISTICS_TAGS : BPS DURATION NUMBER_OF_FRAMES NUMBER_OF_BYTES

Аудио #1
Идентификатор : 2
Формат : AC-3
Формат/Информация : Audio Coding 3
Расширение режима : CM (complete main)
Параметр Endianness формата : Big
Идентификатор кодека : A_AC3
Продолжительность : 1 ч. 37 м.
Вид битрейта : Постоянный
Битрейт : 224 Кбит/сек
Каналы : 2 канала
Расположение каналов : Front: L R
Частота : 48,0 КГц
Метод сжатия : С потерями
Размер потока : 156 Мбайт (5%)
Заголовок : MVO
Язык : Russian
Default : Да
Forced : Нет

Аудио #2
Идентификатор : 3
Формат : AC-3
Формат/Информация : Audio Coding 3
Расширение режима : CM (complete main)
Параметр Endianness формата : Big
Идентификатор кодека : A_AC3
Продолжительность : 1 ч. 37 м.
Вид битрейта : Постоянный
Битрейт : 448 Кбит/сек
Каналы : 6 каналов
Расположение каналов : Front: L C R, Side: L R, LFE
Частота : 48,0 КГц
Метод сжатия : С потерями
Размер потока : 313 Мбайт (9%)
Заголовок : Original
Язык : French
Default : Нет
Forced : Нет

Текст
Идентификатор : 4
Формат : UTF-8
Идентификатор кодека : S_TEXT/UTF8
Идентификатор кодека/Информация : UTF-8 Plain Text
Заголовок : русский (kitmur)
Язык : Russian
Default : Нет
Forced : Нет



Скачать Другая жизнь женщины через торрент http://s018.radikal.ru/i512/1512/9a/1f6d0ffcf2bb.png Скачать, смотреть онлайн Другая жизнь женщины бесплантно в хорошем качестве Описание: Мари исполнилось 40. Но странный эффект: однажды утром она проснулась с ощущением, что 15 последних лет её жизни как не бывало. А ... 10 10 1
Info! Золотая раздача, скачанное не засчитывается.
Торрент: Зарегистрирован [2015-12-14 07:40] · скачан: 24 раз
Статус: √ проверено
Размер: 3.29 GB
Как cкачать? Как скачать Другая жизнь женщины через торрент | UTorrent

% Раздел Тема Автор DL S | L
Фильмы [HD 720p, 1080p] (Хороший звук DUB, MVO) [ 9.97 GB ] Другая жизнь женщины / La vie d'une autre | MVO | 1080p msltel Скачать
1 | 0
Фильмы 2012 [ 1.84 GB ] Другая жизнь женщины / La vie d'une autre | MVO | BDRip AVC msltel Скачать
2 | 0
Фильмы 2012 [ 1.37 GB ] Другая жизнь женщины / La vie d'une autre | MVO | DVDRip Ворон Скачать
1 | 0

28-11-2019 20:33  


Отключить вcю реклaмy на сайте, в т.ч. и в плеере онлайн просмотра!

    Дорогой пользователь! Огромная просьба, поблагодарите релизера, оцените раздачу и оставьте свои комментарий, если Вы скачали Другая жизнь женщины через торрент бесплатно!!
    Комментировать посты могут только пользователи прошедшие не сложную регистрацию
    Показать сообщения:    


    Другая жизнь женщины через торрент
    Скачать бесплатно Другая жизнь женщины
    Другая жизнь женщины скачать торрент
    Другая жизнь женщины смотреть онлайн
    Cкачать фильм Другая жизнь женщины бесплатно
    Другая жизнь женщины скачать торрент в хорошем качестве
    Другая жизнь женщины смотреть онлайн бесплатно в хорошем качестве
    Вы не можете начинать темы
    Вы не можете отвечать на сообщения
    Вы не можете редактировать свои сообщения
    Вы не можете удалять свои сообщения
    Вы не можете голосовать в опросах
    Вы не можете прикреплять файлы к сообщениям
    Вы можете скачивать файлы
    Другая жизнь женщины / La vie d'une autre [2012, драма, мелодрама, комедия, детектив, BDRip 720p ] MVO смотреть онлайн, скачать торрент picoco.icu