Ссылка на приватное зеркало нашего сайта всего за 1$. Внимание количество ограничено!!!

2 сезон

iTunes

1 сезон

1

iTunes

iTunes

iTunes

1 сезон

RePack

30

ИГРА 18+

pack

ВАЖНО

!!Акция!!

Alien_RageХит недели

RePack

MK11
pack

Забери бонус

RePack

jed

!!Акция!!

Alien_Rage

RePack

fifa19

RePack

Assassins Creed: Odyssey

RePack

NEED FOR SPEED™ PAYBACK

4 сезон

9 сезон

Бесстыжие 9 сезон

Все сериалы

все сериалы на PB.wtf

RePack

FAR CRY 5
  

Крутые яйца / Un gallo con muchos huevos (Габриэль Рива Паласио Алатристе, Родольфо Рива Палачио Алатристе) [2015, мультфильм, DVDRip, Дубляж] / Чистый звук pb.wtf

Крутые яйца через торрент pb.wtf

Раздают: 1 [ 0 KB/s ]
Размер: 1.46 GB | Добавлен: 4 года 10 мес. назад | Торрент скачан:1854 раза
Скачать  

14-12-2015 16:14 Крутые яйца Скачать торрент  


Крутые яйца / Un gallo con muchos huevos


ИНФОРМАЦИЯ:
Год выпуска:2015
Страна: Мексика
Жанр: мультфильм
Продолжительность: 01:38:11
Перевод: Дубляж - [Чистый звук]
Режиссер: Габриэль Рива Паласио Алатристе, Родольфо Рива Палачио Алатристе

В Ролях:


Бруно Бичир (Toto), Карлос Эспехель (Willy), Анхелика Вале (Bibi), Омар Чапарро (Patin Patán), Майте Перрони Беорлеги (Di), Серхио Сендель (Bankivoide), Нинель Конде (Chiquis), Джейми Эймерих (J.Luis), Анна Брисбин (Grandma), Travis Randall Clark (Duck MC, озвучка), Гарретт Клэйтон (Willie, озвучка), Кит Дэвид (Don Alfonso, озвучка)

Описание:
Молодой петух Тото хочет добиться в жизни гораздо большего, чем просто каждое утро будить свою ферму. Его мечта - стать знаменитым боксером! Но не зря говорят: «Бойся своих желаний».

  • Мировая премьера:20 августа 2015

    ТЕХ.ДАННЫЕ:
    Качество: DVDRip
    Формат: AVI
    Видео: XviD, 720x400 (16:9), 1924 kbps, 23,976 fps, 0,279 bpp
    Аудио: AC3 / 2.0 / 48 kHz / 192 kbps / 16 bit


    General
    Complete name : D:\Торенты\Kru7ye.9jca.2015.D.DVDRip.avi
    Format : AVI
    Format/Info : Audio Video Interleave
    File size : 1.46 GiB
    Duration : 1h 38mn
    Overall bit rate : 2 126 Kbps
    Writing application : VirtualDubMod 1.5.10.2 (build 2540/release)
    Writing library : VirtualDubMod build 2540/release

    Video
    ID : 0
    Format : MPEG-4 Visual
    Format profile : Advanced Simple@L5
    Format settings, BVOP : 2
    Format settings, QPel : No
    Format settings, GMC : No warppoints
    Format settings, Matrix : Default (MPEG)
    Codec ID : XVID
    Codec ID/Hint : XviD
    Duration : 1h 38mn
    Bit rate : 1 925 Kbps
    Width : 720 pixels
    Height : 400 pixels
    Display aspect ratio : 16:9
    Frame rate : 23.976 fps
    Color space : YUV
    Chroma subsampling : 4:2:0
    Bit depth : 8 bits
    Scan type : Progressive
    Compression mode : Lossy
    Bits/(Pixel*Frame) : 0.279
    Stream size : 1.32 GiB (91%)
    Writing library : XviD 1.2.1 (UTC 2008-12-04)

    Audio
    ID : 1
    Format : AC-3
    Format/Info : Audio Coding 3
    Mode extension : CM (complete main)
    Codec ID : 2000
    Duration : 1h 38mn
    Bit rate mode : Constant
    Bit rate : 192 Kbps
    Channel(s) : 2 channels
    Channel positions : Front: L R
    Sampling rate : 48.0 KHz
    Bit depth : 16 bits
    Compression mode : Lossy
    Stream size : 135 MiB (9%)
    Alignment : Split accross interleaves
    Interleave, duration : 42 ms (1.00 video frame)
    Interleave, preload duration : 500 ms
    Скриншоты:

    © Оформление by .::Ворон::.
    pb.wtf



  • Скачать Крутые яйца через торрент http://pic.kartinco.top/images/6/ordi9.jpg Скачать фильм Крутые яйца через торрент бесплантно в хорошем качестве Описание: Молодой петух Тото хочет добиться в жизни гораздо большего, чем просто каждое утро будить свою ферму. Его мечта - стать ... 9.6 10 50
    Info! Золотая раздача, скачанное не засчитывается.
    Торрент: Зарегистрирован [2015-12-14 16:14] · скачан: 1 854 раз
    Статус: T временная
    Размер: 1.46 GB
    Как cкачать? Как скачать Крутые яйца через торрент | qTorrent

    28-11-2019 20:33  

    Отключить всю рекламу на сайте

    21-12-2015 09:07 Крутые яйца Скачать торрент  

    спасибо за мультик .pb.wtf



    27-12-2015 10:31 Крутые яйца Скачать торрент  

    Крутой мультфильм.pb.wtf



    30-12-2015 15:03 Крутые яйца Скачать торрент  

    Мульт ржакаpb.wtf



      Дорогой пользователь! Огромная просьба, поблагодарите релизера, оцените раздачу и оставьте свои комментарий, если Вы скачали Крутые яйца через торрент бесплатно! Внесите свою лепту в развитие PiratBit!
      Комментировать посты могут только пользователи прошедшие не сложную регистрацию
      Показать сообщения:    

      Крутые яйца через торрент
      Скачать бесплатно Крутые яйца
      Крутые яйца скачать торрент
      Крутые яйца смотреть онлайн
      Cкачать фильм Крутые яйца бесплатно
      Крутые яйца скачать торрент в хорошем качестве
      Крутые яйца смотреть онлайн бесплатно в хорошем качестве


      Вы не можете начинать темы
      Вы не можете отвечать на сообщения
      Вы не можете редактировать свои сообщения
      Вы не можете удалять свои сообщения
      Вы не можете голосовать в опросах
      Вы не можете прикреплять файлы к сообщениям
      Вы можете скачивать файлы