новый адрес
Ссылка на приватное зеркало всего за 1$. Внимание количество ограничено!!!

iTunes

1+1

iTunes

мы

iTunes

1

iTunes

Чернобыль

iTunes

Ральф против интернета

Лицензия

ПШазам

Лицензия

Оно 2

Лицензия

30
pack

Вам бонус

ВАЖНО

!!Акция!!

Alien_RageХит недели

RePack

Resident Evil 21

ИГРА 18+

pack

RePack

jed

!!Акция!!

Alien_Rage

RePack

fifa19

RePack

Assassins Creed: Odyssey

RePack

NEED FOR SPEED™ PAYBACK

3 сезон

9 сезон

Бесстыжие 9 сезон

Все сериалы

все сериалы на PB.wtf

RePack

FAR CRY 5
Ребята, катастрофически не хватает 1900р. для оплаты серверов за Октябрь (всвязи с блокировками трафик упал в 3 раза), 1-2р., выручайте.
  

Неразлучные друзья (Василий Журавлёв) [1952, СССР, приключения, комедия, SATRip от AVP Studio] pb.wtf

Неразлучные друзья через торрент pb.wtf

Размер: 1.18 GB | Добавлен: 3 года 11 мес. назад | Торрент скачан:23 раза
Скачать  

15-12-2015 10:41 Неразлучные друзья Скачать торрент  

Неразлучные друзья
Страна: СССР
Производство: Киевская к/ст

Жанр: приключения, комедия
Год выпуска: 1951
Продолжительность: 01:17:08

Перевод: Не требуется
Cубтитры: нет
Оригинальная аудиодорожка: русский

Режиссер: Василий Журавлёв

В ролях:
Михаил Кузнецов, Виктор Добровольский, Евгений Самойлов, Михаил Мокринский, Владимир Лущик, Владимир Судьин, Анатолий Шиманюк, Наташа Морель, Юрий Критенко, Александр Антонов, Иван Пельтцер, Григорий Плужник...
Полный список актёров

Описание:
Трое друзей Глеб, Коля и Вадим, купаясь в скалистой бухте, находят затонувший партизанский парусник...

Источник: DVB
Качество видео: SATRip
Формат видео: AVI

Видео: 688x512 (4:3), 25 fps, XviD ~ 1997 kbps avg, 0.227 bit/pixel
Аудио: 48 kHz, Dolby Digital AC3 2.0, 192 kbps

Раздача от:
Общее
Полное имя : Nerazluchnye.druzya.1952.SATRip_[New-team]_by_AVP_Studio.avi
Формат : AVI
Формат/Информация : Audio Video Interleave
Размер файла : 1,18 Гбайт
Продолжительность : 1 ч. 17 м.
Общий поток : 2199 Кбит/сек
Программа кодирования : VirtualDubMod 1.5.10.3 | www.virtualdub-fr.org || (build 2550/release)
Библиотека кодирования : VirtualDubMod build 2550/release

Видео
Идентификатор : 0
Формат : MPEG-4 Visual
Профиль формата : Advanced Simple@L5
Параметр BVOP формата : 1
Параметр QPel формата : Нет
Параметр GMC формата : Без точки перехода
Параметр матрицы формата : Выборочная
Идентификатор кодека : XVID
Идентификатор кодека/Подсказка : XviD
Продолжительность : 1 ч. 17 м.
Битрейт : 1997 Кбит/сек
Ширина : 688 пикселей
Высота : 512 пикселей
Соотношение сторон : 4:3
Частота кадров : 25,000 кадров/сек
Цветовое пространство : YUV
Субдискретизация насыщенности : 4:2:0
Битовая глубина : 8 бит
Тип развёртки : Прогрессивная
Метод сжатия : С потерями
Бит/(Пиксели*Кадры) : 0.227
Размер потока : 1,08 Гбайт (91%)
Библиотека кодирования : XviD 1.2.1 (UTC 2008-12-04)

Аудио
Идентификатор : 1
Формат : AC-3
Формат/Информация : Audio Coding 3
Расширение режима : CM (complete main)
Параметр Endianness формата : Big
Идентификатор кодека : 2000
Продолжительность : 1 ч. 17 м.
Вид битрейта : Постоянный
Битрейт : 192 Кбит/сек
Каналы : 2 канала
Расположение каналов : Front: L R
Частота : 48,0 КГц
Метод сжатия : С потерями
Размер потока : 106 Мбайт (9%)
Выравнивание : Разделение по промежуткам
Продолжительность промежутка : 40 мс. (1,00 видеокадр)
Время предзагрузки промежутка : 500 мс
pb.wtf



Скачать Неразлучные друзья через торрент http://s020.radikal.ru/i700/1512/27/5699ba044391.png Скачать фильм Неразлучные друзья через торрент бесплантно в хорошем качестве Описание:Трое друзей Глеб, Коля и Вадим, купаясь в скалистой бухте, находят затонувший партизанский парусник... Источник: ... 8.5 10 2
Торрент: Зарегистрирован [2015-12-15 10:54] · скачан: 23 раз
Статус: √ проверено
Размер: 1.18 GB
Как cкачать? Как скачать Неразлучные друзья через торрент | qTorrent

% Раздел Тема Автор DL S | L
Кино СССР [ 1.09 GB ] Неразлучные друзья [1952 СССР SATRip-AVC от AVP Studio] AVP Studio Скачать
1 | 0
Кино СССР [ 744 MB ] Неразлучные друзья [1952 СССР SATRip от AVP Studio] AVP Studio Скачать
1 | 0
    Дорогой пользователь! Огромная просьба, поблагодарите релизера, оцените раздачу и оставьте свои комментарий, если Вы скачали Неразлучные друзья через торрент бесплатно! Внесите свою лепту в развитие PiratBit!
    Комментировать посты могут только пользователи прошедшие не сложную регистрацию
    Показать сообщения:    

    Неразлучные друзья через торрент
    Скачать бесплатно Неразлучные друзья
    Неразлучные друзья скачать торрент
    Неразлучные друзья смотреть онлайн
    Cкачать фильм Неразлучные друзья бесплатно
    Неразлучные друзья скачать торрент в хорошем качестве
    Неразлучные друзья смотреть онлайн бесплатно в хорошем качестве


    Вы не можете начинать темы
    Вы не можете отвечать на сообщения
    Вы не можете редактировать свои сообщения
    Вы не можете удалять свои сообщения
    Вы не можете голосовать в опросах
    Вы не можете прикреплять файлы к сообщениям
    Вы можете скачивать файлы