новый адрес
Мега распродажа FORZA HORIZON 4 ULTIMATE+ВСЕ DLC+ОНЛАЙН всего за 499р. 349 руб. (супер цена). Внимание количество ограничено!!!

iTunes

1+1

iTunes

мы

iTunes

1

iTunes

Чернобыль

iTunes

Ральф против интернета

Лицензия

ПШазам

Лицензия

Игра престолов

Лицензия

30
pack

ВАЖНО

!!Акция!!

Alien_RageХит недели

RePack

Resident Evil 21

ИГРА 18+

pack

RePack

Metro:Exodus

!!Акция!!

Alien_Rage

RePack

fifa19

RePack

Assassins Creed: Odyssey

RePack

NEED FOR SPEED™ PAYBACK

3 сезон

9 сезон

Бесстыжие 9 сезон

Все сериалы

все сериалы на PB.wtf

RePack

FAR CRY 5
Ребята, катастрофически не хватает 1900р. для оплаты серверов за Октябрь (всвязи с блокировками трафик упал в 3 раза), 1-2р., выручайте.
  

Ревизор (Владимир Петров) [1952, СССР, комедия, экранизация, SATRip от AVP Studio] pb.wtf

Ревизор через торрент pb.wtf

Размер: 1.09 GB | Добавлен: 3 года 11 мес. назад | Торрент скачан:38 раз
Скачать  

15-12-2015 11:03 Ревизор Скачать торрент  

Ревизор
Страна: СССР
Производство: Мосфильм

Жанр: комедия, экранизация
Год выпуска: 1952
Продолжительность: 02:04:04

Перевод: Не требуется
Cубтитры: нет
Оригинальная аудиодорожка: русский

Режиссер: Владимир Петров

В ролях:
Юрий Толубеев, Анастасия Георгиевская, Тамара Носова, Павел Павленко, Сергей Блинников, Михаил Яншин, Эраст Гарин, Александр Полинский, Василий Корнуков, Игорь Горбачёв, Алексей Грибов, Александр Гузеев, Евгений Агуров, Николай Рыбников (II), Николай Чистяков, Сергей Калинин, Иван Рыжов, Валентин Онищенко, Александр Щагин, Н. Тимяков, Анастасия Зуева, Елена Понсова, Павел Иванов (IV), Анатолий Кубацкий, Анна Заржицкая...
Полный список актёров

Описание:
В сытом довольстве живет Городничий Сквозник-Дмухановский, привыкший цепко хватать все, что "плывет в руки". Среди чиновников города процветает казнокрадство и взяточничество. Неожиданная весть о предстоящем приезде ревизора мгновенно нарушает мирное течение жизни, ...а в местной гостинице уже две недели проживает "инкогнито" некий петербургский чиновник, который ведет себя странно и ни за что не платит... Пытаясь, замести следы преступлений, чиновники во главе с Городничим организуют достойную встречу мнимому ревизору. Принятый за ревизора "елистратишка" Хлестаков быстро осваивается со своим новым положением, сватается к дочке Городничего и одновременно начинает волочиться за его женой. Осчастливленный благосклонностью "ревизора", Сквозник-Дмухановский, вершит расправу, над поднявшими было голову купцами и мещанами. Между тем Хлестаков, прихватив взятые у чиновников деньги и "подарки" купцов, благополучно скрывается из города. Письмо Хлестакова в Петербург открывает всем истину. Сообщение о приезде настоящего ревизора окончательно сражает попавшего впросак городничего.

Источник: DVB
Качество видео: SATRip
Формат видео: AVI

Видео: 640x480 (4:3), 25 fps, XviD ~ 1118 kbps avg, 0.146 bit/pixel
Аудио: 48 kHz, MP3 2.0, 128 kbps

Раздача от:
Общее
Полное имя : Revizor.1952.SATRip-1,09_[New-team]_by_AVP_Studio.avi
Формат : AVI
Формат/Информация : Audio Video Interleave
Размер файла : 1,09 Гбайт
Продолжительность : 2 ч. 4 м.
Общий поток : 1256 Кбит/сек
Программа кодирования : VirtualDubMod 1.5.10.3 | www.virtualdub-fr.org || (build 2550/release)
Библиотека кодирования : VirtualDubMod build 2550/release

Видео
Идентификатор : 0
Формат : MPEG-4 Visual
Профиль формата : Advanced Simple@L5
Параметр BVOP формата : 1
Параметр QPel формата : Нет
Параметр GMC формата : Без точки перехода
Параметр матрицы формата : Выборочная
Идентификатор кодека : XVID
Идентификатор кодека/Подсказка : XviD
Продолжительность : 2 ч. 4 м.
Битрейт : 1118 Кбит/сек
Ширина : 640 пикселей
Высота : 480 пикселей
Соотношение сторон : 4:3
Частота кадров : 25,000 кадров/сек
Цветовое пространство : YUV
Субдискретизация насыщенности : 4:2:0
Битовая глубина : 8 бит
Тип развёртки : Прогрессивная
Метод сжатия : С потерями
Бит/(Пиксели*Кадры) : 0.146
Размер потока : 992 Мбайт (89%)
Библиотека кодирования : XviD 1.2.1 (UTC 2008-12-04)

Аудио
Идентификатор : 1
Формат : MPEG Audio
Версия формата : Version 1
Профиль формата : Layer 3
Идентификатор кодека : 55
Идентификатор кодека/Подсказка : MP3
Продолжительность : 2 ч. 4 м.
Вид битрейта : Постоянный
Битрейт : 128 Кбит/сек
Каналы : 2 канала
Частота : 48,0 КГц
Метод сжатия : С потерями
Размер потока : 114 Мбайт (10%)
Выравнивание : Соединение по промежуткам
Продолжительность промежутка : 40 мс. (1,00 видеокадр)
Время предзагрузки промежутка : 504 мс.
Библиотека кодирования : LAME3.99r
Настройки программы : -m s -V 4 -q 2 -lowpass 17 -b 128
pb.wtf



Скачать Ревизор через торрент http://s017.radikal.ru/i419/1512/d5/bf55b29d8c6f.png Скачать фильм Ревизор через торрент бесплантно в хорошем качестве Описание:В сытом довольстве живет Городничий Сквозник-Дмухановский, привыкший цепко хватать все, что "плывет в руки". Среди чиновников ... 5 10 1
Торрент: Зарегистрирован [2015-12-15 11:03] · скачан: 38 раз
Статус: √ проверено
Размер: 1.09 GB
Как cкачать? Как скачать Ревизор через торрент | qTorrent

% Раздел Тема Автор DL S | L
Кино СССР [ 1.46 GB ] Ревизор [1952 СССР экранизация SATRip-AVC от AVP Studio] AVP Studio Скачать
1 | 0
Кино СССР [ 1.46 GB ] Ревизор [1952 СССР экранизация SATRip от AVP Studio] AVP Studio Скачать
1 | 0
Развлекательные телепередачи и шоу, приколы и юмор [ 25.98 GB ] Ревизор / Ревізор [2015 Реалити-Шоу SATRip Оригинальный] Бумер Скачать
1 | 0
Развлекательные телепередачи и шоу, приколы и юмор [ 36.13 GB ] Ревизор Сезон: 1 / Ревізор [2011-2012 Реалити-Шоу SATRip Украинский] Бумер Скачать
1 | 0
Развлекательные телепередачи и шоу, приколы и юмор [ 20.81 GB ] Ревизор / Ревізор Выпуски 1-28 [2011-2012 Реалити-шоу SATRip] DEVI Скачать
1 | 0
Секс с подростками [ 140 MB ] Ревизоры отверстий [2008 Oral Sex Classic Sex Orgy Teen DVDRip] peek-in Скачать
1 | 0


>> Регистрируемся здесь <<






Отзывы и комментарии о схеме читаем и пишем здесь: ---> Отзывы и комментарии о схеме

Новые благодарочки в телеграм довольных пользователей:
скриншот   скриншот   скриншот   скриншот   скриншот
    Дорогой пользователь! Огромная просьба, поблагодарите релизера, оцените раздачу и оставьте свои комментарий, если Вы скачали Ревизор через торрент бесплатно! Внесите свою лепту в развитие PiratBit!
    Комментировать посты могут только пользователи прошедшие не сложную регистрацию
    Показать сообщения:    

    Ревизор через торрент
    Скачать бесплатно Ревизор
    Ревизор скачать торрент
    Ревизор смотреть онлайн
    Cкачать фильм Ревизор бесплатно
    Ревизор скачать торрент в хорошем качестве
    Ревизор смотреть онлайн бесплатно в хорошем качестве


    Вы не можете начинать темы
    Вы не можете отвечать на сообщения
    Вы не можете редактировать свои сообщения
    Вы не можете удалять свои сообщения
    Вы не можете голосовать в опросах
    Вы не можете прикреплять файлы к сообщениям
    Вы можете скачивать файлы