2 сезон

iTunes

MVO

1

2 сезон

iTunes

iTunes

1 сезон

RePack

30

Новинка

ВАЖНО

ИГРА 18+

pack

RePack

MK11
pack

Легкие деньги

RePack

jed

RePack

fifa19

RePack

RDR2

RePack

NEED FOR SPEED™ PAYBACK

4 сезон

9 сезон

Бесстыжие 9 сезон

Все сериалы

все сериалы на PB.wtf

RePack

FAR CRY 5

Anonymous, доброй ночи, мы не успеваем собрать деньги на оплату серверов за декабрь и январь, помогите нам пожалуйста в это трудное время. В качестве благодарности мы отключим Вам всю рекламу на сайте (укажите свой ник в строку Ваше имя)!

×
  
Magnet ссылка

Перевозчик: Наследие / The Transporter Refueled (Камиль Деламарр) [2015, боевик, триллер, криминал, HDRip / КПК / Лицензия] pb.wtf

Перевозчик: Наследие через торрент pb.wtf

Размер: 433 MB | Добавлен: 5 лет 1 мес. назад | Торрент скачан:107 раз
Скачать  

15-12-2015 14:27 Перевозчик: Наследие Скачать торрент  

• Перевозчик 4: Наследие / The Transporter Refueled • Страна: Франция, Китай, Бельгия

Производство: Belga Films, Canal+ [fr], Ciné, EuropaCorp, Fundamental Films, Orange Cinéma Séries, Télé Monté Carlo (TMC), TF1, TF1 Films Production

Год выпуска: 2015

Жанр: боевик, триллер, криминал

Режиссёр: Камиль Деламарр

В ролях: Эд Скрейн, Рэй Стивенсон, Лоан Шабаноль, Габриэлла Райт, Татьяна Пайкович, Венься Ю, Радивойе Буквич, Ноэми Ленуар, Юрий Колокольников, Ленн Кудрявицки

Продолжительность: 01:35:54

Перевод: Профессиональный (полное дублирование) Лицензия


Описание: Фрэнк Мартин — самый высококвалифицированный перевозчик, которого только можно нанять за деньги. Ставки выше, технологии поднялись на более высокий уровень, но правила те же: никогда не изменять условия сделки, никаких имен и никогда не открывать груз.



Когда Фрэнка нанимает хитроумная красотка Анна и ее три очаровательные сообщницы, он быстро выясняет, что его водят за нос. Анна и ее команда похитили его отца, чтобы заставить Фрэнка помочь им разобраться с группой безжалостных торговцев людьми.








Качество: HDRip

Формат: MP4

Разрешение экрана: 640x268

Видео кодек: H.264

Аудио кодек: AAC

Свойства видео: 640x268 (2:39:1), 23,976 fps, 500 kbps (0.122 bit/pixel)

Свойства аудио: 48.0 KHz, 2 ch, 128 kbps

General

Complete name : Перевозчик.Наследие.2015.mp4

Format : MPEG-4

Format profile : Base Media

Codec ID : isom

File size : 433 MiB

Duration : 1h 35mn

Overall bit rate mode : Variable

Overall bit rate : 632 Kbps

Encoded date : UTC 2015-12-15 10:52:20

Tagged date : UTC 2015-12-15 10:52:20



Video

ID : 1

Format : AVC

Format/Info : Advanced Video Codec

Format profile : High@L4.1

Format settings, CABAC : Yes

Format settings, ReFrames : 9 frames

Codec ID : avc1

Codec ID/Info : Advanced Video Coding

Duration : 1h 35mn

Bit rate : 500 Kbps

Maximum bit rate : 1 478 Kbps

Width : 640 pixels

Height : 268 pixels

Display aspect ratio : 2.40:1

Frame rate mode : Constant

Frame rate : 23.976 fps

Color space : YUV

Chroma subsampling : 4:2:0

Bit depth : 8 bits

Scan type : Progressive

Bits/(Pixel*Frame) : 0.122

Stream size : 343 MiB (79%)

Title : 264@GPAC0.5.2-DEV-rev248-g39d5978-master

Writing library : x264 core 146 r2538 121396c

Encoding settings : cabac=1 / ref=9 / deblock=1:-3:-3 / analyse=0x3:0x113 / me=umh / subme=11 / psy=1 / psy_rd=1.00:0.00 / mixed_ref=1 / me_range=32 / chroma_me=1 / trellis=2 / 8x8dct=1 / cqm=0 / deadzone=21,11 / fast_pskip=0 / chroma_qp_offset=-2 / threads=6 / lookahead_threads=1 / sliced_threads=0 / nr=0 / decimate=0 / interlaced=0 / bluray_compat=0 / constrained_intra=0 / bframes=9 / b_pyramid=2 / b_adapt=2 / b_bias=0 / direct=3 / weightb=1 / open_gop=0 / weightp=2 / keyint=240 / keyint_min=23 / scenecut=40 / intra_refresh=0 / rc=2pass / mbtree=0 / bitrate=500 / ratetol=1.0 / qcomp=0.60 / qpmin=0 / qpmax=69 / qpstep=4 / cplxblur=20.0 / qblur=0.5 / ip_ratio=1.40 / pb_ratio=1.30 / aq=1:1.00

Encoded date : UTC 2015-12-15 10:52:20

Tagged date : UTC 2015-12-15 10:52:42



Audio

ID : 2

Format : AAC

Format/Info : Advanced Audio Codec

Format profile : LC

Codec ID : 40

Duration : 1h 35mn

Bit rate mode : Variable

Bit rate : 128 Kbps

Maximum bit rate : 188 Kbps

Channel(s) : 2 channels

Channel positions : Front: L R

Sampling rate : 48.0 KHz

Compression mode : Lossy

Stream size : 87.8 MiB (20%)

Encoded date : UTC 2015-12-15 08:03:47

Tagged date : UTC 2015-12-15 10:52:42
pb.wtf



Скачать Перевозчик: Наследие через торрент http://s017.radikal.ru/i422/1512/d5/5a4d05a2c267.jpg Скачать фильм Перевозчик: Наследие через торрент бесплантно в хорошем качестве Описание: Фрэнк Мартин — самый высококвалифицированный перевозчик, которого только можно нанять за деньги. Ставки выше, технологии ... 9.3 10 7
Торрент: Зарегистрирован [2015-12-15 14:27] · скачан: 107 раз
Статус: √ проверено
Размер: 433 MB
Как cкачать? Как скачать Перевозчик: Наследие через торрент | UTorrent

% Раздел Тема Автор DL S | L
Фильмы 2015 [DVDrip, WEB-DLRip, HDrip] [ 2.18 GB ] Перевозчик: Наследие / The Transporter Refueled [2015 BDRip-AVC] [RUS Transfer] DUB potroks Скачать
1 | 0
Фильмы [HD 720p, 1080p] (Хороший звук DUB, MVO) [ 7.75 GB ] Перевозчик: Наследие / The Transporter Refueled [2015 BDRip 1080p - [ / BD CEE] Ворон Скачать
2 | 0
Фильмы (DVD фильмы) [ 5.29 GB ] Перевозчик: Наследие / The Transporter Refueled [2015 DVD9] R5 voovaz Скачать
1 | 0
Фильмы [HD 720p, 1080p] (Хороший звук DUB, MVO) [ 13.45 GB ] Перевозчик: Наследие / The Transporter Refueled [2015 BDRip 1080p] DUB Ворон Скачать
1 | 0
Фильмы 2015 [DVDrip, WEB-DLRip, HDrip] [ 1.46 GB ] Перевозчик: Наследие / The Transporter Refueled [2015 BDRip [] Twi7ter Скачать
1 | 0
Фильмы 2015 [DVDrip, WEB-DLRip, HDrip] [ 1.47 GB ] Перевозчик: Наследие / The Transporter Refueled [2015 BDRip-AVC] DUB potroks Скачать
1 | 0
Фильмы 2015 [DVDrip, WEB-DLRip, HDrip] [ 704 MB ] Перевозчик: Наследие / The Transporter Refueled [2015 HDRip " BD RUS"] coc900 Скачать
1 | 0

28-11-2019 20:33  

Отключить всю рекламу на сайте


    Дорогой пользователь! Огромная просьба, поблагодарите релизера, оцените раздачу и оставьте свои комментарий, если Вы скачали Перевозчик: Наследие через торрент бесплатно! Внесите свою лепту в развитие PiratBit!
    Комментировать посты могут только пользователи прошедшие не сложную регистрацию
    Показать сообщения:    

    Перевозчик: Наследие через торрент
    Скачать бесплатно Перевозчик: Наследие
    Перевозчик: Наследие скачать торрент
    Перевозчик: Наследие смотреть онлайн
    Cкачать фильм Перевозчик: Наследие бесплатно
    Перевозчик: Наследие скачать торрент в хорошем качестве
    Перевозчик: Наследие смотреть онлайн бесплатно в хорошем качестве


    Вы не можете начинать темы
    Вы не можете отвечать на сообщения
    Вы не можете редактировать свои сообщения
    Вы не можете удалять свои сообщения
    Вы не можете голосовать в опросах
    Вы не можете прикреплять файлы к сообщениям
    Вы можете скачивать файлы