Ссылка на приватное зеркало нашего сайта всего за 1$. Внимание количество ограничено!!!

2 сезон

iTunes

1 сезон

1

2 сезон

2 сезон

iTunes

1 сезон

RePack

30

Ultimate

ВАЖНО

ИГРА 18+

pack

RePack

MK11
pack

Забери бонус

RePack

jed

!!Акция!!

Alien_Rage

RePack

fifa19

RePack

Assassins Creed: Odyssey

RePack

NEED FOR SPEED™ PAYBACK

4 сезон

9 сезон

Бесстыжие 9 сезон

Все сериалы

все сериалы на PB.wtf

RePack

FAR CRY 5
  

Лютер / Luther / 4 сезон / 01 серии (04) [2015, драма, детектив, HDTVRip] [DVO] (ColdFilm) pb.wtf

Лютер через торрент pb.wtf

Размер: 635 MB | Добавлен: 4 года 11 мес. назад | Торрент скачан:44 раза
Скачать  

16-12-2015 12:10 Лютер Скачать торрент  

Лютер / Luther
Год выхода: 2015
Жанр: драма, детектив
Выпущено: Англия, BBC
Продолжительность: 1x ~00:58:17
Перевод: Любительский (двухголосый, закадровый) [ColdFilm]

Режиссер: Сэм Миллер, Брайан Кирк, Стефан Шварц

В ролях: Идрис Эльба, Уоррен Браун, Дермот Краули, Майкл Смайли, Рут Уилсон, Пол МакГэнн, Никки Амука-Бёрд, Кармен Келли, Стивен Макинтош, Саския Ривз, Индира Варма, Эйми-Ффион Эдвардс, Кирстон Вэрэйнг, Сиенна Гиллори Мрачная психологическая криминальная драма, рассказывающая о гениальном детективе , страдающем от собственных демонов. Он может быть таким же опасным, как и убийцы, которых он ловит.



Качество: HDTVRip
Формат: AVI
Видео кодек: XvID
Аудио кодек: MP3
Видео: XvID, 720×400, 25.000 fps, 1368 kbps avg, 0.186 bit/pixel
Аудио: 44.100 kHz, MPEG Layer 3, 2 ch, ~192.00 kbps avg [DVO]
General
Complete name : E:\INTERNET\Luther.S04E01.HDTVRip.ColdFilm.avi
Format : AVI
Format/Info : Audio Video Interleave
File size : 635 MiB
Duration : 58mn 1s
Overall bit rate : 1 530 Kbps
Writing application : VirtualDubMod 1.5.10.2 (build 2540/release)
Writing library : VirtualDubMod build 2540/release

Video
ID : 0
Format : xvid
Codec ID : xvid
Duration : 58mn 1s
Bit rate : 1 368 Kbps
Width : 720 pixels
Height : 400 pixels
Display aspect ratio : 16:9
Frame rate : 25.000 fps
Bits/(Pixel*Frame) : 0.186
Stream size : 526 MiB (83%)

Audio
ID : 1
Format : MPEG Audio
Format version : Version 1
Format profile : Layer 3
Codec ID : 55
Codec ID/Hint : MP3
Duration : 58mn 1s
Bit rate mode : Constant
Bit rate : 192 Kbps
Channel(s) : 2 channels
Sampling rate : 44.1 KHz
Compression mode : Lossy
Stream size : 79.7 MiB (13%)
Alignment : Split accross [/code]
Когда раздача ведётся путём добавления новых серий, при каждом добавлении создётся новый торрент. Чтобы начать докачку новой серии, пользователям необходимо сделать следующее:
(1) остановить скачивание,
(2) удалить старый торрент у себя из клиента (старые серии удалять не надо),
(3) скачать новый торрент и запустить его у себя в клиенте вместо старого, при этом указать клиенту путь в старую папку, куда и должно происходить скачивание новых серий.
Ваш клиент при этом должен произвести хеширование (проверку) старой папки (если не производит сам - помогите ему сделать это), и будет докачивать только те серии, которых у вас ещё нет. Старые серии при этом не удаляются, а продолжают раздаваться!
Eсли вы уже удалили старые серии, то предотвратить повторную закачку старых серий можно, отжав галочку в соответсвующих местах при запуске нового торрента. По возможности, желательно не удалять старые серии как можно дольше, чтобы релизёр не столько продолжал раздавать старые серии, а смог сконцентрироваться на новых.
pb.wtf



Скачать Лютер через торрент http://i67.fastpic.ru/big/2015/1112/c6/0503b0c80153eef5eb2ad00551b339c6.jpg Скачать фильм Лютер через торрент бесплантно в хорошем качестве В ролях: Идрис Эльба, Уоррен Браун, Дермот Краули, Майкл Смайли, Рут Уилсон, Пол МакГэнн, Никки Амука-Бёрд, Кармен Келли, Стивен Макинтош, ... 10 10 4
Info! Золотая раздача, скачанное не засчитывается.
Торрент: Зарегистрирован [2015-12-16 12:10] · скачан: 44 раз
Статус: √ проверено
Размер: 635 MB
Как cкачать? Как скачать Лютер через торрент | qTorrent

% Раздел Тема Автор DL S | L
Зарубежные сериалы [ 8.08 GB ] Лютер / Luther / Сезон: 2 / Серии: 1-4 из 4 [2011 BDRip 720p] MVO [TVShows] bober100 Скачать
1 | 0
Зарубежные сериалы [ 14.38 GB ] Лютер / Luther / Сезон: 2 / Серии: 1-4 из 4 [2011 BDRip 1080p] MVO [TVShows] bober100 Скачать
1 | 0
Зарубежные сериалы [ 44.5 GB ] Лютер / Luther / 1-4 сезон / 01-16 серии [2010-2015 BDRip 720p] [DVO] killermax2013 Скачать
1 | 0
Зарубежные сериалы [ 7.05 GB ] Лютер / Luther / Сезон: 5 / Серии: 1-4 из 4 [2019 WEB-DL 1080p] [MVO] killermax2013 Скачать
1 | 0
Зарубежные сериалы [ 3.58 GB ] Лютер / Luther / Сезон: 5 / Серии: 1-4 из 4 [2019 WEB-DL 720p] [MVO] killermax2013 Скачать
1 | 0
Зарубежные сериалы [ 7.05 GB ] Лютер / Luther / Сезон: 5 / Серии: 1-4 из 4 [2019 WEB-DL 1080p] [MVO] + 2x[Sub] killermax2013 Скачать
1 | 0
Зарубежные сериалы [ 2.86 GB ] Лютер / Luther / Сезон: 5 / Серии: 1-4 из 4 [2019 WEB-DLRip] [MVO] + 2x[Sub] killermax2013 Скачать
1 | 0

28-11-2019 20:33  

Отключить всю рекламу на сайте

16-12-2015 16:40 Лютер Скачать торрент  

ура!!!!! наконец это произошло) дождался) спасибо!!!!!pb.wtf



28-12-2015 12:11 Лютер Скачать торрент  

Когда следующую серию ждать?pb.wtf



28-12-2015 12:50 Лютер Скачать торрент  

Максончик писал(а):

Когда следующую серию ждать?

вот держите Лютер / Luther / 4 сезон / 01-02 серии pb.wtf



28-12-2015 14:11 Лютер Скачать торрент  

killermax2013 писал(а):

Максончик писал(а):

Когда следующую серию ждать?

вот держите Лютер / Luther / 4 сезон / 01-02 серии

Спасибо!!!pb.wtf



    Дорогой пользователь! Огромная просьба, поблагодарите релизера, оцените раздачу и оставьте свои комментарий, если Вы скачали Лютер через торрент бесплатно! Внесите свою лепту в развитие PiratBit!
    Комментировать посты могут только пользователи прошедшие не сложную регистрацию
    Показать сообщения:    

    Лютер через торрент
    Скачать бесплатно Лютер
    Лютер скачать торрент
    Лютер смотреть онлайн
    Cкачать фильм Лютер бесплатно
    Лютер скачать торрент в хорошем качестве
    Лютер смотреть онлайн бесплатно в хорошем качестве


    Вы не можете начинать темы
    Вы не можете отвечать на сообщения
    Вы не можете редактировать свои сообщения
    Вы не можете удалять свои сообщения
    Вы не можете голосовать в опросах
    Вы не можете прикреплять файлы к сообщениям
    Вы можете скачивать файлы