Ссылка на приватное зеркало всего за 1$. Внимание количество ограничено!!!

OK

1+1

iTunes

мы

OK

1

WEB-DLRip

Джокер

Пифагор

Ведьмак / The Witcher сериал

iTunes

ПШазам

ОК

Оно 2

iTunes

30
pack

Вам бонус

ВАЖНО

!!Акция!!

Alien_RageХит недели

RePack

Resident Evil 21

ИГРА 18+

pack

RePack

jed

RePack

fifa19

RePack

Assassins Creed: Odyssey

RePack

NEED FOR SPEED™ PAYBACK

4 сезон

9 сезон

Бесстыжие 9 сезон

Все сериалы

все сериалы на PB.wtf

RePack

FAR CRY 5
  

Эверест / Everest (Бальтасар Кормакур) [2015, триллер, драма, приключения, HDRip] [iTunes] pb.wtf

Эверест через торрент pb.wtf

Размер: 1.46 GB | Добавлен: 4 года 1 мес. назад | Торрент скачан:188 раз
Скачать  

16-12-2015 15:23 Эверест Скачать торрент  


Эверест / Everest

Год выпуска: 2015
Страна: США, Великобритания, Исландия
Жанр: триллер, драма, приключения, биография, история
Продолжительность: 02:00:54
Перевод: Дубляж - [Лицензия / iTunes]
Режиссер: Бальтасар Кормакур
В ролях: Джейсон Кларк, Джош Бролин, Джейк Джилленхол, Сэм Уортингтон, Джон Хоукс, Майкл Келли, Ингвар Эггерт Сигюрдссон, Кира Найтли

Эверест — великая неприступная гора, покорить вершину которой мечтают многие профессиональные альпинисты. Одна из экспедиций на ее вершину закончилась настоящей трагедией, однако этот факт не останавливает отважных альпинистов. Опытный инструктор Роб Холл, собрав группу из лучших альпинистов, собирается совершить восхождение на самую высокую вершину планеты. Все эти люди полны мужества и отваги и они не остановятся ни перед чем, пока не поднимутся на вершину Эвереста. Но даже если эта гора покорится им, смогут ли они вернуться обратно живыми и невредимыми..?

Качество: HDRip
Формат: AVI
Видео кодек: XviD
Аудио кодек: AC3
Видео: XviD 1332 kb/s, 720x304, 23.976 fps

Аудио: Rus:AC3, 384 kb/s, 6 каналов, 48 Кгц
Скриншоты:скриншот   скриншот   скриншот  
Общее
Полное имя : E:\Everest.2015.D.HDRip.1.46GB.avi
Формат : AVI
Формат/Информация : Audio Video Interleave
Размер файла : 1,46 Гбайт
Продолжительность : 2 ч. 1 м.
Общий поток : 1725 Кбит/сек
Программа кодирования : VirtualDubMod 1.5.10.3 | www.virtualdub-fr.org || (build 2550/release)
Библиотека кодирования : VirtualDubMod build 2550/release

Видео
Идентификатор : 0
Формат : MPEG-4 Visual
Профиль формата : Advanced Simple@L5
Параметр BVOP формата : 2
Параметр QPel формата : Нет
Параметр GMC формата : Без точки перехода
Параметр матрицы формата : Default (MPEG)
Идентификатор кодека : XVID
Идентификатор кодека/Подсказка : XviD
Продолжительность : 2 ч. 1 м.
Битрейт : 1332 Кбит/сек
Ширина : 720 пикселей
Высота : 304 пикселя
Соотношение сторон : 2,35:1
Частота кадров : 23,976 кадра/сек
Цветовое пространство : YUV
Субдискретизация насыщенности : 4:2:0
Битовая глубина : 8 бит
Тип развёртки : Прогрессивная
Метод сжатия : С потерями
Бит/(Пиксели*Кадры) : 0.254
Размер потока : 1,13 Гбайт (77%)
Библиотека кодирования : XviD 1.2.1 (UTC 2008-12-04)

Аудио
Идентификатор : 1
Формат : AC-3
Формат/Информация : Audio Coding 3
Расширение режима : CM (complete main)
Параметр Endianness формата : Big
Идентификатор кодека : 2000
Продолжительность : 2 ч. 1 м.
Вид битрейта : Постоянный
Битрейт : 384 Кбит/сек
Каналы : 6 каналов
Расположение каналов : Front: L C R, Side: L R, LFE
Частота : 48,0 КГц
Битовая глубина : 16 бит
Метод сжатия : С потерями
Размер потока : 333 Мбайт (22%)
Выравнивание : Разделение по промежуткам
Продолжительность промежутка : 42 мс. (1,00 видеокадр)
Время предзагрузки промежутка : 500 мс.

pb.wtf



Скачать Эверест через торрент http://pic1.kartinco.top/images/10/o7gb8.jpg Скачать фильм Эверест через торрент бесплантно в хорошем качестве В ролях: Джейсон Кларк, Джош Бролин, Джейк Джилленхол, Сэм Уортингтон, Джон Хоукс, Майкл Келли, Ингвар Эггерт Сигюрдссон, Кира ... 9.1 10 10
Торрент: Зарегистрирован [2015-12-16 15:23] · скачан: 188 раз
Статус: √ проверено
Размер: 1.46 GB
Как cкачать? Как скачать Эверест через торрент | qTorrent

% Раздел Тема Автор DL S | L
Ultra HD (UHD: 2K, 4K, 8K) — видео сверхвысокой чёткости [ 32.52 GB ] Эверест / Everest [2015 UHD BDRip 2160p] [SDR] DUB sheker187 Скачать
2 | 0
National Geographic [ 2.18 GB ] Землетрясение на Эвересте / Earthquake on Everest [2015 Документальный катастрофа научный исследование HDTVRip 1080p ] Armstrong Скачать
1 | 0
Ultra HD (UHD: 2K, 4K, 8K) — видео сверхвысокой чёткости [ 48.68 GB ] Эверест / Everest [2015 UHD BDRemux 2160p] DUB [] bober100 Скачать
1 | 0
Зарубежные сериалы [ 5.28 GB ] Уровень / The Level / Сезон 1 / Серии 1-6 из 6 [2016 WEB-DLRip-AVC] MVO [BaibaKo] GEKADOL Скачать
1 | 0
Фильмы (DVD фильмы) [ 7.55 GB ] Эверест / Everest [2015 биография история DVD9] R2 voovaz Скачать
1 | 0
Официальные cаундтреки к зарубежным фильмам [ 149 MB ] Эверест / Everest [Score by Dario Marianelli ] / MP3 / 320 kbps / Score + Bonus от NNNB _denis_100 Скачать
1 | 0
3D Фильмы [ 11.94 GB ] Эверест / Everest [2015 BDRip ] OverUnder / Вертикальная стереопара serega768 Скачать
2 | 0


Последний раз редактировалось: $-DRON-$ (2015-12-16 15:58), всего редактировалось 1 раз

28-11-2019 20:33  

Отключить всю рекламу на сайте

16-12-2015 15:39 Эверест Скачать торрент  

О,круто,а 3D будет?pb.wtf



16-12-2015 15:54 Эверест Скачать торрент  

ну уж если добавил спойлер MI, буть добр и содержимое добавитьpb.wtf



    Дорогой пользователь! Огромная просьба, поблагодарите релизера, оцените раздачу и оставьте свои комментарий, если Вы скачали Эверест через торрент бесплатно! Внесите свою лепту в развитие PiratBit!
    Комментировать посты могут только пользователи прошедшие не сложную регистрацию
    Показать сообщения:    

    Эверест через торрент
    Скачать бесплатно Эверест
    Эверест скачать торрент
    Эверест смотреть онлайн
    Cкачать фильм Эверест бесплатно
    Эверест скачать торрент в хорошем качестве
    Эверест смотреть онлайн бесплатно в хорошем качестве


    Вы не можете начинать темы
    Вы не можете отвечать на сообщения
    Вы не можете редактировать свои сообщения
    Вы не можете удалять свои сообщения
    Вы не можете голосовать в опросах
    Вы не можете прикреплять файлы к сообщениям
    Вы можете скачивать файлы