2 сезон

iTunes

MVO

1

2 сезон

iTunes

iTunes

1 сезон

RePack

30

Новинка

ВАЖНО

ИГРА 18+

pack

RePack

MK11
pack

Легкие деньги

RePack

jed

RePack

fifa19

RePack

RDR2

RePack

NEED FOR SPEED™ PAYBACK

4 сезон

9 сезон

Бесстыжие 9 сезон

Все сериалы

все сериалы на PB.wtf

RePack

FAR CRY 5

Anonymous, добрый вечер, мы не успеваем собрать деньги на оплату серверов за декабрь и январь, помогите нам пожалуйста в это трудное время. В качестве благодарности мы отключим Вам всю рекламу на сайте (укажите свой ник в строку Ваше имя)!

×
  
Magnet ссылка

Рога / Horns (Александр Ажа) [2013 г., фэнтези, триллер, драма, ужасы, HDRip, Профессиональный многоголосый закадровый "Лицензия'] pb.wtf

Рога через торрент pb.wtf

Размер: 2.18 GB | Добавлен: 5 лет 1 мес. назад | Торрент скачан:386 раз
Скачать  

16-12-2015 18:00 Рога Скачать торрент  

Рога / Horns
Год выпуска: 2013
Страна: США, Канада / Red Granite Pictures, Mandalay Pictures
Жанр: фэнтези, триллер, драма, ужасы
Продолжительность: 01:59:55
Перевод: Профессиональный многоголосый закадровый (Лицензия)

Режиссер: Александр Ажа

IMDB 6.50 (42 050)


В ролях: Дэниэл Рэдклифф, Джуно Темпл, Макс Мингелла, Джо Андерсон, Келли Гарнер, Джеймс Римар, Кэтлин Куинлен, Хэзер Грэм, Дэвид Морс, Майкл Адамуэйт

Описание: История простого американского парня по имени Иг Перриш, который просыпается рано утром с диким похмельем и обнаруживает, что у него на голове выросли настоящие рога. Вместе с рогами у героя появляется еще одно дьявольское качество: в присутствии Перриша люди начинают говорить то, что думают на самом деле, и все грязные секреты оказываются на поверхности. Теперь Иг может узнать, кто на самом деле убил его девушку, поскольку в этом преступлении обвиняют его самого, хоть и бездоказательно.

Качество: HDRip
Формат: AVI
Видео кодек: XviD
Аудио кодек: AC3
Видео: 720x304 (2.37:1), 23.976 fps, XviD build 50 ~2143 kbps avg, 0.41 bit/pixel
Аудио: 48 kHz, AC3 Dolby Digital, 3/2 (L,C,R,l,r) + LFE ch, ~448 kbps
скриншот   скриншот   скриншот   скриншот   скриншот  

Общее
Полное имя : F:\кино\Рога.2013.HDRip.avi
Формат : AVI
Формат/Информация : Audio Video Interleave
Профиль формата : OpenDML
Размер файла : 2,18 Гбайт
Продолжительность : 1 ч. 59 м.
Общий поток : 2599 Кбит/сек
Программа кодирования : VirtualDubMod 1.5.10.3 | www.virtualdub-fr.org || (build 2550/release)
Библиотека кодирования : VirtualDubMod build 2550/release

Видео
Идентификатор : 0
Формат : MPEG-4 Visual
Профиль формата : Advanced Simple@L5
Параметр BVOP формата : 2
Параметр QPel формата : Нет
Параметр GMC формата : Без точки перехода
Параметр матрицы формата : Default (H.263)
Идентификатор кодека : XVID
Идентификатор кодека/Подсказка : XviD
Продолжительность : 1 ч. 59 м.
Битрейт : 2139 Кбит/сек
Ширина : 720 пикселей
Высота : 304 пикселя
Соотношение сторон : 2,35:1
Частота кадров : 23,976 (23976/1000) кадра/сек
Цветовое пространство : YUV
Субдискретизация насыщенности : 4:2:0
Битовая глубина : 8 бит
Тип развёртки : Прогрессивная
Метод сжатия : С потерями
Бит/(Пиксели*Кадры) : 0.408
Размер потока : 1,79 Гбайт (82%)
Библиотека кодирования : XviD 1.2.1 (UTC 2008-12-04)

Аудио
Идентификатор : 1
Формат : AC-3
Формат/Информация : Audio Coding 3
Расширение режима : CM (complete main)
Параметр Endianness формата : Big
Идентификатор кодека : 2000
Продолжительность : 1 ч. 59 м.
Вид битрейта : Постоянный
Битрейт : 448 Кбит/сек
Каналы : 6 каналов
Расположение каналов : Front: L C R, Side: L R, LFE
Частота : 48,0 КГц
Частота кадров : 31,250 кадров/сек (1536 spf)
Метод сжатия : С потерями
Размер потока : 384 Мбайт (17%)
Выравнивание : Разделение по промежуткам
Продолжительность промежутка : 42 мс. (1,00 видеокадр)
Время предзагрузки промежутка : 500 мс.

pb.wtf



Скачать Рога через торрент http://pic.kartinco.top/images/11/p4hvd.jpg Скачать фильм Рога через торрент бесплантно в хорошем качестве Описание: История простого американского парня по имени Иг Перриш, который просыпается рано утром с диким похмельем и обнаруживает, что у ... 10 10 13
Торрент: Зарегистрирован [2015-12-16 18:00] · скачан: 386 раз
Статус: √ проверено
Размер: 2.18 GB
Как cкачать? Как скачать Рога через торрент | UTorrent

% Раздел Тема Автор DL S | L
Фильмы 2013 [DVDrip, WEB-DLRip, HDrip] [ 2.18 GB ] Рога / Horns [2013 BDRip-AVC] MVO [] potroks Скачать
1 | 0
Фильмы 2013 [DVDrip, WEB-DLRip, HDrip] [ 2.91 GB ] Рога / Horns [2013 BDRip-AVC от sokol_ok] MVO [] sokol_ok Скачать
2 | 0
Фильмы 2013 [DVDrip, WEB-DLRip, HDrip] [ 1.41 GB ] Рога / Horns [2013 WEB-DLRip-AVC] Авторский От R.G. PiratFilms White Smoke Скачать
1 | 0
Фильмы 2013 [DVDrip, WEB-DLRip, HDrip] [ 1.37 GB ] Рога / Horns [2013 HDRip [] Ворон Скачать
1 | 0
Фильмы 2013 [DVDrip, WEB-DLRip, HDrip] [ 1.46 GB ] Рога / Horns [2013 BDRip-AVC от sokol_ok] MVO [] sokol_ok Скачать
2 | 0
Фильмы (Blu-ray, BD-Remux, HDDVD) [ 40.14 GB ] Рога / Horns [2013 Blu-Ray] MVO AVO Russian Mafia Скачать
1 | 0
Фильмы без перевода [ 1.29 GB ] Рога / Horns [2013 WEB-DLRip-AVC] [Sub] + [Orig] Eng killermax2013 Скачать
1 | 0

28-11-2019 20:33  

Отключить всю рекламу на сайте

16-12-2015 20:54 Рога Скачать торрент  

Поменял очки на рога "красавчик",но фильм неплохой.pb.wtf



    Дорогой пользователь! Огромная просьба, поблагодарите релизера, оцените раздачу и оставьте свои комментарий, если Вы скачали Рога через торрент бесплатно! Внесите свою лепту в развитие PiratBit!
    Комментировать посты могут только пользователи прошедшие не сложную регистрацию
    Показать сообщения:    

    Рога через торрент
    Скачать бесплатно Рога
    Рога скачать торрент
    Рога смотреть онлайн
    Cкачать фильм Рога бесплатно
    Рога скачать торрент в хорошем качестве
    Рога смотреть онлайн бесплатно в хорошем качестве


    Вы не можете начинать темы
    Вы не можете отвечать на сообщения
    Вы не можете редактировать свои сообщения
    Вы не можете удалять свои сообщения
    Вы не можете голосовать в опросах
    Вы не можете прикреплять файлы к сообщениям
    Вы можете скачивать файлы