Ссылка на приватное зеркало всего за 1$. Внимание количество ограничено!!!

iTunes

iTunes

iTunes

1

iTunes

iTunes

iTunes

iTunes

iTunes

30
pack

$ от Little Big

ВАЖНО

!!Акция!!

Alien_RageХит недели

RePack

Resident Evil 21

ИГРА 18+

pack

RePack

jed

!!Акция!!

Alien_Rage

RePack

fifa19

RePack

Assassins Creed: Odyssey

RePack

NEED FOR SPEED™ PAYBACK

4 сезон

9 сезон

Бесстыжие 9 сезон

Все сериалы

все сериалы на PB.wtf

RePack

FAR CRY 5
  

Новые русские 2 (Кирилл Плетнёв, Владлена Санду, Светлана Самошина) [2015, комедия, триллер, драма, WEB-DLRip, [Русский] pb.wtf

Новые русские 2 через торрент pb.wtf

Размер: 1.37 GB | Добавлен: 4 года 5 мес. назад | Торрент скачан:828 раз
Скачать  

16-12-2015 18:23 Новые русские 2 Скачать торрент  


Новые русские 2


ИНФОРМАЦИЯ:
Год выпуска:2015
Страна: Россия
Жанр: комедия, триллер, драма
Продолжительность: 01:42:10
Перевод: Не требуется [Русский]
Режиссер: Кирилл Плетнёв, Владлена Санду, Светлана Самошина

В Ролях:


Анна Уколова, Инга Оболдина (сотрудница полиции Анастасия), Мария Шульга (преступница Настя), Альфия Закирова, Анастасия Белоусова (Кира), Алексей Сергеев (Алексей), Искандер Шайхутдинов, Эдуард Кашпоров, Василиса Земскова, Александр Яценко (Александр), Анна Шепелева (Анна), Наталья Анисимова (играет саму себя)

Описание:
Романтическая эротика, жизнь как триллер, жёсткая криминально-психологическая драма, головокружительная черная комедия и интимный киноэскиз о непостоянстве красивых актрис - новая коллекция молодого и прогрессивного российского кино.


ТЕХ.ДАННЫЕ:
Качество: WEB-DLRip
Формат: AVI
Видео: XviD, 720x400 (16:9), 1713 kbps, 25 fps, 0,238 bpp
Аудио: AC3 / 2.0 / 48 kHz / 192 kbps / 16 bit


General
Complete name : D:\Торенты\Novie.Russk1e.2.2015.O.WEB-DLRip.1400M.avi
Format : AVI
Format/Info : Audio Video Interleave
File size : 1.37 GiB
Duration : 1h 42mn
Overall bit rate : 1 916 Kbps
Writing application : VirtualDubMod 1.5.10.2 (build 2540/release)
Writing library : VirtualDubMod build 2540/release

Video
ID : 0
Format : MPEG-4 Visual
Format profile : Advanced Simple@L5
Format settings, BVOP : 2
Format settings, QPel : No
Format settings, GMC : No warppoints
Format settings, Matrix : Default (MPEG)
Codec ID : XVID
Codec ID/Hint : XviD
Duration : 1h 42mn
Bit rate : 1 714 Kbps
Width : 720 pixels
Height : 400 pixels
Display aspect ratio : 16:9
Frame rate : 25.000 fps
Color space : YUV
Chroma subsampling : 4:2:0
Bit depth : 8 bits
Scan type : Progressive
Compression mode : Lossy
Bits/(Pixel*Frame) : 0.238
Stream size : 1.22 GiB (89%)
Writing library : XviD 1.2.1 (UTC 2008-12-04)

Audio
ID : 1
Format : AC-3
Format/Info : Audio Coding 3
Mode extension : CM (complete main)
Codec ID : 2000
Duration : 1h 42mn
Bit rate mode : Constant
Bit rate : 192 Kbps
Channel(s) : 2 channels
Channel positions : Front: L R
Sampling rate : 48.0 KHz
Bit depth : 16 bits
Compression mode : Lossy
Stream size : 140 MiB (10%)
Alignment : Split accross interleaves
Interleave, duration : 40 ms (1.00 video frame)
Interleave, preload duration : 500 ms
Скриншоты:

© Оформление by .::Ворон::.
pb.wtf



Скачать Новые русские 2 через торрент http://pic.kartinco.top/images/6/ordi9.jpg Скачать фильм Новые русские 2 через торрент бесплантно в хорошем качестве Описание: Романтическая эротика, жизнь как триллер, жёсткая криминально-психологическая драма, головокружительная черная комедия и интимный ... 9.9 10 14
Торрент: Зарегистрирован [2015-12-16 18:23] · скачан: 828 раз
Статус: T временная
Размер: 1.37 GB
Как cкачать? Как скачать Новые русские 2 через торрент | qTorrent

% Раздел Тема Автор DL S | L
Отечественный Рэп, Хип-Хоп [ 352 MB ] VA - Новинки русского рэпа Vol.2 2019 / MP3 / 320 kbps / Rap Hip-hop bober100 Скачать
3 | 1
Рок, Панк, Альтернатива (mp3) [ 315 MB ] VA - RockДрайв. Новинки русского рока. Часть 2 2018 / MP3 / 320 kbps / Рок bober100 Скачать
1 | 0
R.G.Resident - Документалистика, Видео [ 1.07 GB ] Новые русские сенсации - Человек Путина [2017 Документальный ТВ-шоу расследование HDTVRip Русский] R.G.Resident ruslanishe Скачать
1 | 0
Наши новые фильмы 2015 [ 748 MB ] Новые русские 2 [2015 WEB-DLRip] [Русский] Sherif Скачать
1 | 0
T Наши фильмы (HD, WEB-DL 720p, 1080p) [ 1.93 GB ] Новые русские 2 [2015 WEB-DL 720p [Русский] Ворон Скачать
1 | 0
Рок, Панк, Альтернатива (mp3) [ 729 MB ] VA - Новый Русский Рок Vol.2 2015 / MP3 / 320 kbps / Rock megatoxa Скачать
1 | 0
Отечественный Рэп, Хип-Хоп [ 340 MB ] VA - Новинки Русского рэпа 2015 / MP3 / 320 kbps / Rap Hip Hop den7z8 Скачать
1 | 0

28-11-2019 20:33  

Отключить всю рекламу на сайте

18-12-2015 14:49 Новые русские 2 Скачать торрент  

Спасибо, глянем. Первый цикл фильмов был неплох!pb.wtf



25-12-2015 17:58 Новые русские 2 Скачать торрент  

этот выпуск понравился больше первого..pb.wtf



    Дорогой пользователь! Огромная просьба, поблагодарите релизера, оцените раздачу и оставьте свои комментарий, если Вы скачали Новые русские 2 через торрент бесплатно! Внесите свою лепту в развитие PiratBit!
    Комментировать посты могут только пользователи прошедшие не сложную регистрацию
    Показать сообщения:    

    Новые русские 2 через торрент
    Скачать бесплатно Новые русские 2
    Новые русские 2 скачать торрент
    Новые русские 2 смотреть онлайн
    Cкачать фильм Новые русские 2 бесплатно
    Новые русские 2 скачать торрент в хорошем качестве
    Новые русские 2 смотреть онлайн бесплатно в хорошем качестве


    Вы не можете начинать темы
    Вы не можете отвечать на сообщения
    Вы не можете редактировать свои сообщения
    Вы не можете удалять свои сообщения
    Вы не можете голосовать в опросах
    Вы не можете прикреплять файлы к сообщениям
    Вы можете скачивать файлы