Ссылка на приватное зеркало всего за 1$. Внимание количество ограничено!!!

OK

1+1

iTunes

мы

OK

1

WEB-DLRip

Джокер

Пифагор

Ведьмак / The Witcher сериал

iTunes

ПШазам

ОК

Оно 2

iTunes

30
pack

Вам бонус

ВАЖНО

!!Акция!!

Alien_RageХит недели

RePack

Resident Evil 21

ИГРА 18+

pack

RePack

jed

RePack

fifa19

RePack

Assassins Creed: Odyssey

RePack

NEED FOR SPEED™ PAYBACK

4 сезон

9 сезон

Бесстыжие 9 сезон

Все сериалы

все сериалы на PB.wtf

RePack

FAR CRY 5
  

Виселица / The Gallows (Трэвис Клафф, Крис Лофинг) [2015 г., ужасы, триллер, HDRip, Дубляж "Лицензия BD CEE"] pb.wtf

Виселица через торрент pb.wtf

Размер: 1.47 GB | Добавлен: 4 года 1 мес. назад | Торрент скачан:152 раза
Скачать  

16-12-2015 18:25 Виселица Скачать торрент  

Виселица / The Gallows
Год выпуска: 2015
Страна: США / New Line Cinema, Blumhouse Productions, Management 360
Жанр: ужасы, триллер
Продолжительность: 01:20:47
Перевод: Дубляж (Лицензия BD CEE)

Режиссер: Трэвис Клафф, Крис Лофинг

IMDB 4.30 (9465)


В ролях: Риз Мишлер, Пфайфер Браун, Райан Шус, Кэссиди Гиффорд, Трэвис Клафф, Прайс Т. Морган, Тео Буркхардт, Дэвид Херрера, Гэннон Дель Фиерро, Маки Берт

Описание: Спустя 20 лет после трагического несчастного случая при постановке школьной пьесы учащиеся решают вновь поставить ее с целью почтить память погибшего ученика. Но в некоторых случаях прошлое лучше не ворошить...

Качество: HDRip
Формат: AVI
Видео кодек: XviD
Аудио кодек: AC3
Видео: 720x400 (1.80:1), 23.976 fps, XviD build 50 ~2139 kbps avg, 0.31 bit/pixel
Аудио: 48 kHz, AC3 Dolby Digital, 3/2 (L,C,R,l,r) + LFE ch, ~448 kbps

Общее
Полное имя : F:\кино\Виселица.2015.HDRip.avi
Формат : AVI
Формат/Информация : Audio Video Interleave
Размер файла : 1,47 Гбайт
Продолжительность : 1 ч. 20 м.
Общий поток : 2596 Кбит/сек
Программа кодирования : VirtualDubMod 1.5.10.3 | www.virtualdub-fr.org || (build 2550/release)
Библиотека кодирования : VirtualDubMod build 2550/release

Видео
Идентификатор : 0
Формат : MPEG-4 Visual
Профиль формата : Advanced Simple@L5
Параметр BVOP формата : 2
Параметр QPel формата : Нет
Параметр GMC формата : Без точки перехода
Параметр матрицы формата : Default (H.263)
Идентификатор кодека : XVID
Идентификатор кодека/Подсказка : XviD
Продолжительность : 1 ч. 20 м.
Битрейт : 2139 Кбит/сек
Ширина : 720 пикселей
Высота : 400 пикселей
Соотношение сторон : 16:9
Частота кадров : 23,976 (23976/1000) кадра/сек
Цветовое пространство : YUV
Субдискретизация насыщенности : 4:2:0
Битовая глубина : 8 бит
Тип развёртки : Прогрессивная
Метод сжатия : С потерями
Бит/(Пиксели*Кадры) : 0.310
Размер потока : 1,21 Гбайт (82%)
Библиотека кодирования : XviD 1.2.1 (UTC 2008-12-04)

Аудио
Идентификатор : 1
Формат : AC-3
Формат/Информация : Audio Coding 3
Расширение режима : CM (complete main)
Параметр Endianness формата : Big
Идентификатор кодека : 2000
Продолжительность : 1 ч. 20 м.
Вид битрейта : Постоянный
Битрейт : 448 Кбит/сек
Каналы : 6 каналов
Расположение каналов : Front: L C R, Side: L R, LFE
Частота : 48,0 КГц
Частота кадров : 31,250 кадров/сек (1536 spf)
Метод сжатия : С потерями
Размер потока : 259 Мбайт (17%)
Выравнивание : Разделение по промежуткам
Продолжительность промежутка : 42 мс. (1,00 видеокадр)
Время предзагрузки промежутка : 500 мс.

pb.wtf



Скачать Виселица через торрент http://pic.kartinco.top/images/11/slmh1.jpg Скачать фильм Виселица через торрент бесплантно в хорошем качестве Описание: Спустя 20 лет после трагического несчастного случая при постановке школьной пьесы учащиеся решают вновь поставить ее с целью ... 6.6 10 9
Торрент: Зарегистрирован [2015-12-16 18:25] · скачан: 152 раз
Статус: √ проверено
Размер: 1.47 GB
Как cкачать? Как скачать Виселица через торрент | qTorrent

% Раздел Тема Автор DL S | L
Фильмы [HD 720p, 1080p] (Хороший звук DUB, MVO) [ 10.06 GB ] Виселица / The Gallows [2015 BDRip 1080p / ] Ворон Скачать
1 | 0
Фильмы 2015 [DVDrip, WEB-DLRip, HDrip] [ 1.45 GB ] Виселица / The Gallows [2015 HDRip] Ворон Скачать
1 | 0
Фильмы [HD 720p, 1080p] (Хороший звук DUB, MVO) [ 4.35 GB ] Виселица / The Gallows [2015 BDRip 720p / ] Ворон Скачать
1 | 0
Фильмы (Blu-ray, BD-Remux, HDDVD) [ 19.32 GB ] Виселица / The Gallows [2015 BDRemux 1080p] от NovaLan Russian Mafia Скачать
1 | 0
Фильмы (Blu-ray, BD-Remux, HDDVD) [ 38.99 GB ] Виселица / The Gallows [2015 Blu-ray 1080p CEE] Russian Mafia Скачать
1 | 1

28-11-2019 20:33  

Отключить всю рекламу на сайте

16-12-2015 20:25 Виселица Скачать торрент  

Плохой фильм!после просмотра (если хватит терпения) хочется забыть и невспоминать как плохой сон. pb.wtf



    Дорогой пользователь! Огромная просьба, поблагодарите релизера, оцените раздачу и оставьте свои комментарий, если Вы скачали Виселица через торрент бесплатно! Внесите свою лепту в развитие PiratBit!
    Комментировать посты могут только пользователи прошедшие не сложную регистрацию
    Показать сообщения:    

    Виселица через торрент
    Скачать бесплатно Виселица
    Виселица скачать торрент
    Виселица смотреть онлайн
    Cкачать фильм Виселица бесплатно
    Виселица скачать торрент в хорошем качестве
    Виселица смотреть онлайн бесплатно в хорошем качестве


    Вы не можете начинать темы
    Вы не можете отвечать на сообщения
    Вы не можете редактировать свои сообщения
    Вы не можете удалять свои сообщения
    Вы не можете голосовать в опросах
    Вы не можете прикреплять файлы к сообщениям
    Вы можете скачивать файлы