Ссылка на приватное зеркало нашего сайта всего за 1$. Внимание количество ограничено!!!

2 сезон

iTunes

1 сезон

1

2 сезон

2 сезон

iTunes

1 сезон

RePack

30

Ultimate

ВАЖНО

ИГРА 18+

pack

RePack

MK11
pack

Забери бонус

RePack

jed

!!Акция!!

Alien_Rage

RePack

fifa19

RePack

Assassins Creed: Odyssey

RePack

NEED FOR SPEED™ PAYBACK

4 сезон

9 сезон

Бесстыжие 9 сезон

Все сериалы

все сериалы на PB.wtf

RePack

FAR CRY 5
  

Звездный путь: Отступники / Star Trek: Renegades (Тим Расс) [2015, фантастика, боевик, приключения, WEB-DLRip, Любительский (одноголосый) [Lord32x] pb.wtf

Звездный путь: Отступники через торрент pb.wtf

Размер: 1.46 GB | Добавлен: 4 года 11 мес. назад | Торрент скачан:622 раза
Скачать  

16-12-2015 18:50 Звездный путь: Отступники Скачать торрент  


Звездный путь: Отступники / Star Trek: Renegades


ИНФОРМАЦИЯ:
Год выпуска:2015
Страна: США
Жанр: фантастика, боевик, приключения
Продолжительность: 01:27:22
Перевод: Любительский (одноголосый) [Lord32x]
Режиссер: Тим Расс

В Ролях:


Эдриэнн Уилкинсон (Lexxa Singh), Уолтер Кениг (Admiral Chekov), Шон Янг (Lucien), Ману Интирэйми (Icheb), Корин Немек (Alvarez), Гари Грэхэм (Ragnar), Брюс А. Янг (Borrada), Тим Расс (Tuvok), Чести Бальестерос (Ronara), Эдвард Ферлонг (Fixer), Кортни Пелдон (Shree), Роберт Пикардо (Louis Zimmerman)

Описание:
Прошло почти десять лет после возвращения Вояджера. Федерация находится в кризисе. Основные поставщики кристаллов Федерации исчезают. Пространство и время уже сложено вокруг нескольких планет, эффективно изолируя их от любых контактов с внешним миром. И это явление не является естественным - кто-то или что-то хочет, чтобы это произошло. Для этого, адмирал Павел Чехов, глава Звездного Флота разведки, обращается к командиру Тувоку, бывшему офицеру безопасности Вояджера и нынешнему главе. Тувок должен собрать новый экипаж - в основном изгои и жулики - даже преступники. Этому новому экипажу поручено выяснить, что является причиной сворачивания пространства и времени, и остановить это - любой ценой.

  • Мировая премьера:1 августа 2015

    ТЕХ.ДАННЫЕ:
    Качество: WEB-DLRip
    Формат: AVI
    Видео: XviD, 720x352 (2.045), 2100 kbps, 23,976 fps, 0,346 bpp
    Аудио: MP3 / 2.0 / 48 kHz / 192 kbps /


    General
    Complete name : D:\Торенты\Star.Trek.Renegades.2015.WEB-DLRip.1500MB.Lord32x.Studio.avi
    Format : AVI
    Format/Info : Audio Video Interleave
    File size : 1.46 GiB
    Duration : 1h 27mn
    Overall bit rate : 2 396 Kbps
    Writing application : VirtualDubMod 1.5.10.3 | www.virtualdub-fr.org || (build 2550/release)
    Writing library : VirtualDubMod build 2550/release

    Video
    ID : 0
    Format : MPEG-4 Visual
    Format profile : Advanced Simple@L5
    Format settings, BVOP : 1
    Format settings, QPel : No
    Format settings, GMC : No warppoints
    Format settings, Matrix : Default (MPEG)
    Codec ID : XVID
    Codec ID/Hint : XviD
    Duration : 1h 27mn
    Bit rate : 2 100 Kbps
    Width : 720 pixels
    Height : 352 pixels
    Display aspect ratio : 2.045
    Frame rate : 23.976 fps
    Color space : YUV
    Chroma subsampling : 4:2:0
    Bit depth : 8 bits
    Scan type : Progressive
    Compression mode : Lossy
    Bits/(Pixel*Frame) : 0.346
    Stream size : 1.28 GiB (88%)
    Writing library : XviD 1.2.1 (UTC 2008-12-04)

    Audio
    ID : 1
    Format : MPEG Audio
    Format version : Version 1
    Format profile : Layer 3
    Mode : Joint stereo
    Mode extension : MS Stereo
    Codec ID : 55
    Codec ID/Hint : MP3
    Duration : 1h 27mn
    Bit rate mode : Constant
    Bit rate : 192 Kbps
    Channel(s) : 2 channels
    Sampling rate : 48.0 KHz
    Compression mode : Lossy
    Stream size : 120 MiB (8%)
    Alignment : Aligned on interleaves
    Скриншоты:

    © Оформление by .::Ворон::.
    pb.wtf



  • Скачать Звездный путь: Отступники через торрент http://pic.kartinco.top/images/6/ordi9.jpg Скачать фильм Звездный путь: Отступники через торрент бесплантно в хорошем качестве Описание: Прошло почти десять лет после возвращения Вояджера. Федерация находится в кризисе. Основные поставщики кристаллов Федерации ... 8.9 10 18
    Info! Золотая раздача, скачанное не засчитывается.
    Торрент: Зарегистрирован [2015-12-16 18:50] · скачан: 622 раз
    Статус: T временная
    Размер: 1.46 GB
    Как cкачать? Как скачать Звездный путь: Отступники через торрент | qTorrent

    28-11-2019 20:33  

    Отключить всю рекламу на сайте

    16-12-2015 19:06 Звездный путь: Отступники Скачать торрент  

    Цитата:

    это фильм
    проблема в том что и на IMDB и на кинопоиске путаница

    pb.wtf



    16-12-2015 20:59 Звездный путь: Отступники Скачать торрент  

    на кинопоиске на писано сериал здесь кино и как понять это !!!pb.wtf



    17-12-2015 03:01 Звездный путь: Отступники Скачать торрент  

    это действительно пилот сериала, причем весьма посредственный в плане сценария. комп. графика получше чем у асилума, при этом грим актеров говно, звук - говно, игра актеров - говно, интерьеры - говно. учитывая что премьера была в августе, думаю кинобоссы разделяют мое мнение и сериал закрыли. надеясь на чудо, отсмотрел где-то около часа. как выяснилось - зря надеялся. оценил на 2 из 10. не рекомендую никому, даже самым упертым фанатам стартрекаpb.wtf



    17-12-2015 03:06 Звездный путь: Отступники Скачать торрент  

    на кинозале тоже как киноpb.wtf



    17-12-2015 04:19 Звездный путь: Отступники Скачать торрент  

    шляпа))pb.wtf



    17-12-2015 04:24 Звездный путь: Отступники Скачать торрент  

    tony_santini писал(а):

    на кинозале тоже как кино

    наверное потому что хронометраж полтора часаpb.wtf



    17-12-2015 04:59 Звездный путь: Отступники Скачать торрент  

    там еще Валя Гафт снимается на 26 минуте sarcasticpb.wtf



    17-12-2015 06:11 Звездный путь: Отступники Скачать торрент  

    да уж большая шляпа))pb.wtf



    18-12-2015 17:38 Звездный путь: Отступники Скачать торрент  

    может они тоже хотели снять как снимали в 80е фантастикуpb.wtf



      Дорогой пользователь! Огромная просьба, поблагодарите релизера, оцените раздачу и оставьте свои комментарий, если Вы скачали Звездный путь: Отступники через торрент бесплатно! Внесите свою лепту в развитие PiratBit!
      Комментировать посты могут только пользователи прошедшие не сложную регистрацию
      Показать сообщения:    

      Звездный путь: Отступники через торрент
      Скачать бесплатно Звездный путь: Отступники
      Звездный путь: Отступники скачать торрент
      Звездный путь: Отступники смотреть онлайн
      Cкачать фильм Звездный путь: Отступники бесплатно
      Звездный путь: Отступники скачать торрент в хорошем качестве
      Звездный путь: Отступники смотреть онлайн бесплатно в хорошем качестве


      Вы не можете начинать темы
      Вы не можете отвечать на сообщения
      Вы не можете редактировать свои сообщения
      Вы не можете удалять свои сообщения
      Вы не можете голосовать в опросах
      Вы не можете прикреплять файлы к сообщениям
      Вы можете скачивать файлы