Ссылка на приватное зеркало всего за 1$. Внимание количество ограничено!!!

iTunes

iTunes

iTunes

1

iTunes

iTunes

iTunes

iTunes

iTunes

30
pack

$ от Little Big

ВАЖНО

!!Акция!!

Alien_RageХит недели

RePack

Resident Evil 21

ИГРА 18+

pack

RePack

jed

!!Акция!!

Alien_Rage

RePack

fifa19

RePack

Assassins Creed: Odyssey

RePack

NEED FOR SPEED™ PAYBACK

4 сезон

9 сезон

Бесстыжие 9 сезон

Все сериалы

все сериалы на PB.wtf

RePack

FAR CRY 5
  

Прогулка / The Walk (Роберт Земекис) [2015, триллер, драма, приключения, биография, WEB-DL 720p] [iTunes] pb.wtf

Прогулка через торрент pb.wtf

Размер: 3.8 GB | Добавлен: 4 года 6 мес. назад | Торрент скачан:113 раз
Скачать  

16-12-2015 23:07 Прогулка Скачать торрент  

Прогулка
The Walk

Год выпуска » 2015
Страна » США
Жанр » Триллер, драма, приключения, биография
Продолжительность » 02:03:24
Перевод » Дублированный [iTunes]
Субтитры » Отсутствуют

В ролях
» Джозеф Гордон-Левитт, Бен Кингсли, Стив Валентайн, Шарлотта Ле Бон, Джеймс Бэдж Дэйл, Бен Шварц, Бенедикт Сэмюэл, Мизинга Мвинга, Дэниэл Аррош, Джейсон Делайн

Режиссёр
» Роберт Земекис
ОПИСАНИЕ:
» Вы боитесь высоты? А можете представить себя идущим по натянутому канату на высоте более 400м без всякой страховки? Потоки ветра обдувают вас, а внизу — город и тысячи взволнованных взглядов, устремленных вверх. История о том, как французский канатоходец Филипп Пети отважился совершить легендарный трюк — пройти без страховки по канату, натянутому между небоскребами в Нью-Йорке.
• Качество » WEB-DL 720p
• Формат » MKV
• Видео кодек » AVC
• Аудио кодек » AC3
• Видео » 3941 kb/s,1280x532, 23. 976 fps
• Аудио » • Русский (AC3, 384 kb/s, 6 каналов, 48 Кгц)


Общее
Уникальный идентификатор : 241973736096675528026967601696734513136 (0xB60A7247F370BA22B7F0C4E8871507F0)
Полное имя : E:\Pr0GylKa.2015.D.WEB-DL.720p.mkv
Формат : Matroska
Версия формата : Version 4 / Version 2
Размер файла : 3,80 Гбайт
Продолжительность : 2 ч. 3 м.
Общий поток : 4412 Кбит/сек
Дата кодирования : UTC 2015-12-16 19:17:47
Программа кодирования : mkvmerge v8.3.0 ('Over the Horizon') 64bit
Библиотека кодирования : libebml v1.3.1 + libmatroska v1.4.2
DURATION : 02:03:09.376000000
NUMBER_OF_FRAMES : 230918
NUMBER_OF_BYTES : 354690048
_STATISTICS_WRITING_APP : mkvmerge v8.3.0 ('Over the Horizon') 64bit
_STATISTICS_WRITING_DATE_UTC : 2015-12-16 19:17:47
_STATISTICS_TAGS : BPS DURATION NUMBER_OF_FRAMES NUMBER_OF_BYTES

Видео
Идентификатор : 1
Формат : AVC
Формат/Информация : Advanced Video Codec
Профиль формата : Main@L3.1
Параметр CABAC формата : Нет
Параметр ReFrames формата : 2 кадра
Идентификатор кодека : V_MPEG4/ISO/AVC
Продолжительность : 2 ч. 3 м.
Битрейт : 3941 Кбит/сек
Ширина : 1280 пикселей
Высота : 532 пикселя
Соотношение сторон : 2,40:1
Режим частоты кадров : Постоянный
Частота кадров : 23,976 кадра/сек
Цветовое пространство : YUV
Субдискретизация насыщенности : 4:2:0
Битовая глубина : 8 бит
Тип развёртки : Прогрессивная
Бит/(Пиксели*Кадры) : 0.241
Размер потока : 3,39 Гбайт (89%)
Язык : English
Default : Да
Forced : Нет
Основные цвета : BT.709
Характеристики трансфера : BT.709
Коэффициенты матрицы : BT.709

Аудио
Идентификатор : 2
Формат : AC-3
Формат/Информация : Audio Coding 3
Расширение режима : CM (complete main)
Параметр Endianness формата : Big
Идентификатор кодека : A_AC3
Продолжительность : 2 ч. 3 м.
Вид битрейта : Постоянный
Битрейт : 384 Кбит/сек
Каналы : 6 каналов
Расположение каналов : Front: L C R, Side: L R, LFE
Частота : 48,0 КГц
Битовая глубина : 16 бит
Метод сжатия : С потерями
Размер потока : 338 Мбайт (9%)
Язык : Russian
Default : Да
Forced : Нет

Меню
00:00:00.000 : en:1
00:05:13.000 : en:2
00:10:04.000 : en:3
00:14:49.000 : en:4
00:23:27.000 : en:5
00:32:18.000 : en:6
00:41:42.000 : en:7
00:46:28.000 : en:8
00:55:33.000 : en:9
01:04:32.000 : en:10
01:11:11.000 : en:11
01:17:34.000 : en:12
01:24:30.000 : en:13
01:33:39.000 : en:14
01:42:14.000 : en:15
01:50:21.000 : en:16
скриншот   скриншот   скриншот   скриншот   скриншот   скриншот  
pb.wtf



Скачать Прогулка через торрент http://pic1.kartinco.top/images/10/dh9f3.jpg Скачать фильм Прогулка через торрент бесплантно в хорошем качестве ОПИСАНИЕ: » Вы боитесь высоты? А можете представить себя идущим по натянутому канату на высоте более 400м без всякой страховки? Потоки ... 9.4 10 10
Info! Золотая раздача, скачанное не засчитывается.
Торрент: Зарегистрирован [2015-12-16 23:07] · скачан: 113 раз
Статус: √ проверено
Размер: 3.8 GB
Как cкачать? Как скачать Прогулка через торрент | qTorrent

% Раздел Тема Автор DL S | L
Фильмы с авторской озвучкой [ 1.46 GB ] Прогулка в облаках / A Walk in the Clouds [1995 BDRip] [AVO] killermax2013 Скачать
1 | 0
Фильмы [HD 720p, 1080p] (Хороший звук DUB, MVO) [ 5.76 GB ] Прогулка / The Walk [2015 BDRip 720p] DUB potroks Скачать
2 | 0
Фильмы [HD 720p, 1080p] (Хороший звук DUB, MVO) [ 11.48 GB ] Прогулка среди могил / A Walk Among the Tombstones [2014 BDRip 1080p] DUB [iPTV] 2х AVO $-DRON-$ Скачать
1 | 0
R.G. Resident & PiratVoice - Фильмы, Видео [ 1.56 GB ] Прогулка среди могил / A Walk Among the Tombstones [2014 BDRip-AVC - [IPTV] R.G.Resident schultz Скачать
1 | 0
Фильмы [HD 720p, 1080p] (Хороший звук DUB, MVO) [ 5.74 GB ] Прогулка среди могил / A Walk Among the Tombstones [2014 BDRip 720p] DUB AVO potroks Скачать
1 | 0
Фильмы (DVD фильмы) [ 6.87 GB ] Прогулка / The Walk [2015 биография DVD9] DUB R5 voovaz Скачать
1 | 0
T Фильмы 2014 [DVDrip, WEB-DLRip, HDrip] [ 1.47 GB ] Прогулка среди могил / A Walk Among the Tombstones [2014 BDRip ] / Чистый звук Twi7ter Скачать
1 | 0

28-11-2019 20:33  

Отключить всю рекламу на сайте

    Дорогой пользователь! Огромная просьба, поблагодарите релизера, оцените раздачу и оставьте свои комментарий, если Вы скачали Прогулка через торрент бесплатно! Внесите свою лепту в развитие PiratBit!
    Комментировать посты могут только пользователи прошедшие не сложную регистрацию
    Показать сообщения:    

    Прогулка через торрент
    Скачать бесплатно Прогулка
    Прогулка скачать торрент
    Прогулка смотреть онлайн
    Cкачать фильм Прогулка бесплатно
    Прогулка скачать торрент в хорошем качестве
    Прогулка смотреть онлайн бесплатно в хорошем качестве


    Вы не можете начинать темы
    Вы не можете отвечать на сообщения
    Вы не можете редактировать свои сообщения
    Вы не можете удалять свои сообщения
    Вы не можете голосовать в опросах
    Вы не можете прикреплять файлы к сообщениям
    Вы можете скачивать файлы