Ссылка на приватное зеркало нашего сайта всего за 1$. Внимание количество ограничено!!!

2 сезон

iTunes

1 сезон

1

iTunes

iTunes

iTunes

1 сезон

RePack

30

ИГРА 18+

pack

ВАЖНО

!!Акция!!

Alien_RageХит недели

RePack

MK11
pack

Забери бонус

RePack

jed

!!Акция!!

Alien_Rage

RePack

fifa19

RePack

Assassins Creed: Odyssey

RePack

NEED FOR SPEED™ PAYBACK

4 сезон

9 сезон

Бесстыжие 9 сезон

Все сериалы

все сериалы на PB.wtf

RePack

FAR CRY 5
  

Фатальный инстинкт / Fatal Instinct (Карл Райнер) [1993, триллер, комедия, криминал, пародия, BDRip 1080p by msltel] MVO, AVO, VO pb.wtf

Фатальный инстинкт через торрент pb.wtf

Размер: 11.27 GB | Добавлен: 4 года 10 мес. назад | Торрент скачан:29 раз
Скачать  

17-12-2015 07:11 Фатальный инстинкт Скачать торрент  

Название: Фатальный инстинкт
Оригинальное название: Fatal Instinct
Год выпуска: 1993
Страна: США
Жанр: триллер, комедия, криминал, пародия
Продолжительность: 01:29:51
Перевод: профессиональный многоголосый, авторский, любительский одноголосый

Режиссёр: Карл Райнер

В ролях: Арманд Ассанте, Шерилин Фенн, Кейт Неллиган, Шон Янг, Кристофер МакДональд, Джеймс Римар, Тони Рэндолл, Кларенс Клемонс, Майкл Кампсти, Джон Уизерспун, Блэйк Кларк, Эдвард Бланчард, Дэвид Гринли, Тим Фрисби, Карл Райнер, Лори Лапински, Эрта Китт, Харви Ливайн, Кристофер Дарга

Описание: Полицейский и адвокат в одном лице являет собой воплощённый укор всей правовой системе, в которой тупоголовые полицейские ловят идиотов-преступников, которых судят продажные судьи, вкупе с такими же присяжными...



Качество: BDRip 1080p Сравнение с исходником
Формат: MKV
Видео: MPEG-4 AVC, 14.2 Mбит/с, 1920x1036, 23,976 кадра/с
Аудио 1: русский, AC3, 192 kbps, 2 ch, 48 kHz [профессиональный многоголосый, HTB]
Аудио 2: русский, DTS, 1509 kbps, 2 ch, 48 kHz [авторский, Александр Кашкин]
Аудио 3: русский, AC3, 192 kbps, 2 ch, 48 kHz [любительский одноголосый, Стрельцов]
Аудио 4: английский, DTS, 1509 kbps, 2 ch, 48 kHz [оригинал]
Общее
Уникальный идентификатор : 214023308818971107928740603199339714111 (0xA10363D2221E54C3B50A82AC6A89563F)
Полное имя : D:\Video\Фатальный инстинкт.1993.BDRip.1080p.mkv
Формат : Matroska
Версия формата : Version 4 / Version 2
Размер файла : 11,3 Гбайт
Продолжительность : 1 ч. 29 м.
Общий поток : 17,9 Мбит/сек
Дата кодирования : UTC 2015-12-17 03:53:22
Программа кодирования : mkvmerge v8.2.0 ('World of Adventure') 64bit
Библиотека кодирования : libebml v1.3.1 + libmatroska v1.4.2
DURATION : 01:29:50.454000000
NUMBER_OF_FRAMES : 505355
NUMBER_OF_BYTES : 1016774532
_STATISTICS_WRITING_APP : mkvmerge v8.2.0 ('World of Adventure') 64bit
_STATISTICS_WRITING_DATE_UTC : 2015-12-17 03:53:22
_STATISTICS_TAGS : BPS DURATION NUMBER_OF_FRAMES NUMBER_OF_BYTES

Видео
Идентификатор : 1
Формат : AVC
Формат/Информация : Advanced Video Codec
Профиль формата : High@L4.1
Параметр CABAC формата : Да
Параметр ReFrames формата : 4 кадра
Идентификатор кодека : V_MPEG4/ISO/AVC
Продолжительность : 1 ч. 29 м.
Битрейт : 14,2 Мбит/сек
Ширина : 1920 пикселей
Высота : 1036 пикселей
Соотношение сторон : 1,85:1
Режим частоты кадров : Постоянный
Частота кадров : 23,976 кадра/сек
Цветовое пространство : YUV
Субдискретизация насыщенности : 4:2:0
Битовая глубина : 8 бит
Тип развёртки : Прогрессивная
Бит/(Пиксели*Кадры) : 0.298
Размер потока : 8,91 Гбайт (79%)
Заголовок : BDRip by msltel
Библиотека кодирования : x264 core 146 r2538 121396c
Настройки программы : cabac=1 / ref=4 / deblock=1:-3:-3 / analyse=0x3:0x113 / me=umh / subme=10 / psy=1 / psy_rd=1.00:0.15 / mixed_ref=1 / me_range=32 / chroma_me=1 / trellis=2 / 8x8dct=1 / cqm=0 / deadzone=21,11 / fast_pskip=1 / chroma_qp_offset=-3 / threads=6 / lookahead_threads=1 / sliced_threads=0 / nr=0 / decimate=1 / interlaced=0 / bluray_compat=0 / constrained_intra=0 / bframes=11 / b_pyramid=2 / b_adapt=2 / b_bias=0 / direct=1 / weightb=1 / open_gop=0 / weightp=2 / keyint=230 / keyint_min=23 / scenecut=40 / intra_refresh=0 / rc_lookahead=40 / rc=crf / mbtree=0 / crf=17.8 / qcomp=0.60 / qpmin=0 / qpmax=69 / qpstep=4 / vbv_maxrate=40000 / vbv_bufsize=50000 / crf_max=0.0 / nal_hrd=none / filler=0 / ip_ratio=1.40 / pb_ratio=1.30 / aq=1:1.00
Язык : English
Default : Да
Forced : Нет
DURATION : 01:29:50.427000000
NUMBER_OF_FRAMES : 129241
NUMBER_OF_BYTES : 9801789198
_STATISTICS_WRITING_APP : mkvmerge v8.2.0 ('World of Adventure') 64bit
_STATISTICS_WRITING_DATE_UTC : 2015-12-17 03:53:22
_STATISTICS_TAGS : BPS DURATION NUMBER_OF_FRAMES NUMBER_OF_BYTES

Аудио #1
Идентификатор : 2
Формат : AC-3
Формат/Информация : Audio Coding 3
Расширение режима : CM (complete main)
Параметр Endianness формата : Big
Идентификатор кодека : A_AC3
Продолжительность : 1 ч. 29 м.
Вид битрейта : Постоянный
Битрейт : 192 Кбит/сек
Каналы : 2 канала
Расположение каналов : Front: L R
Частота : 48,0 КГц
Метод сжатия : С потерями
Размер потока : 123 Мбайт (1%)
Заголовок : MVO (HTB)
Язык : Russian
Default : Да
Forced : Нет

Аудио #2
Идентификатор : 3
Формат : DTS
Формат/Информация : Digital Theater Systems
Режим : 16
Параметр Endianness формата : Big
Идентификатор кодека : A_DTS
Продолжительность : 1 ч. 29 м.
Вид битрейта : Постоянный
Битрейт : 1509 Кбит/сек
Каналы : 2 канала
Расположение каналов : Front: L R
Частота : 48,0 КГц
Битовая глубина : 24 бит
Метод сжатия : С потерями
Размер потока : 970 Мбайт (8%)
Заголовок : AVO (Александр Кашкин)
Язык : Russian
Default : Нет
Forced : Нет

Аудио #3
Идентификатор : 4
Формат : AC-3
Формат/Информация : Audio Coding 3
Расширение режима : CM (complete main)
Параметр Endianness формата : Big
Идентификатор кодека : A_AC3
Продолжительность : 1 ч. 29 м.
Вид битрейта : Постоянный
Битрейт : 192 Кбит/сек
Каналы : 2 канала
Расположение каналов : Front: L R
Частота : 48,0 КГц
Метод сжатия : С потерями
Размер потока : 123 Мбайт (1%)
Заголовок : любительский одноголосый, Стрельцов
Язык : Russian
Default : Нет
Forced : Нет

Аудио #4
Идентификатор : 5
Формат : DTS
Формат/Информация : Digital Theater Systems
Режим : 16
Параметр Endianness формата : Big
Идентификатор кодека : A_DTS
Продолжительность : 1 ч. 29 м.
Вид битрейта : Постоянный
Битрейт : 1509 Кбит/сек
Каналы : 2 канала
Расположение каналов : Front: L R
Частота : 48,0 КГц
Битовая глубина : 24 бит
Метод сжатия : С потерями
Размер потока : 970 Мбайт (8%)
Заголовок : Original
Язык : English
Default : Нет
Forced : Нет
pb.wtf



Скачать Фатальный инстинкт через торрент http://s019.radikal.ru/i625/1512/fb/b741119b75da.png Скачать фильм Фатальный инстинкт через торрент бесплантно в хорошем качестве Описание: Полицейский и адвокат в одном лице являет собой воплощённый укор всей правовой системе, в которой тупоголовые полицейские ловят ... 1 10 2
Info! Золотая раздача, скачанное не засчитывается.
Торрент: Зарегистрирован [2015-12-17 07:11] · скачан: 29 раз
Статус: √ проверено
Размер: 11.27 GB
Как cкачать? Как скачать Фатальный инстинкт через торрент | qTorrent

% Раздел Тема Автор DL S | L
Фильмы до 2000 г. [ 1.46 GB ] Фатальный инстинкт / Fatal Instinct [1993 BDRip] MVO AVO VO koenig Скачать
1 | 0
Фильмы [HD 720p, 1080p] (Хороший звук DUB, MVO) [ 3.93 GB ] Фатальный инстинкт / Fatal Instinct [1993 пародия BDRip 720p by msltel] MVO AVO VO msltel Скачать
1 | 0
Фильмы до 2000 г. [ 2.31 GB ] Фатальный инстинкт / Fatal Instinct [1993 пародия BDRip AVC by msltel] MVO AVO VO msltel Скачать
1 | 0

28-11-2019 20:33  

Отключить всю рекламу на сайте

    Дорогой пользователь! Огромная просьба, поблагодарите релизера, оцените раздачу и оставьте свои комментарий, если Вы скачали Фатальный инстинкт через торрент бесплатно! Внесите свою лепту в развитие PiratBit!
    Комментировать посты могут только пользователи прошедшие не сложную регистрацию
    Показать сообщения:    

    Фатальный инстинкт через торрент
    Скачать бесплатно Фатальный инстинкт
    Фатальный инстинкт скачать торрент
    Фатальный инстинкт смотреть онлайн
    Cкачать фильм Фатальный инстинкт бесплатно
    Фатальный инстинкт скачать торрент в хорошем качестве
    Фатальный инстинкт смотреть онлайн бесплатно в хорошем качестве


    Вы не можете начинать темы
    Вы не можете отвечать на сообщения
    Вы не можете редактировать свои сообщения
    Вы не можете удалять свои сообщения
    Вы не можете голосовать в опросах
    Вы не можете прикреплять файлы к сообщениям
    Вы можете скачивать файлы