Ссылка на приватное зеркало всего за 1$. Внимание количество ограничено!!!

iTunes

iTunes

iTunes

1

iTunes

iTunes

iTunes

iTunes

iTunes

30
pack

Новость дня

ВАЖНО

!!Акция!!

Alien_RageХит недели

RePack

Resident Evil 21

ИГРА 18+

pack

RePack

jed

!!Акция!!

Alien_Rage

RePack

fifa19

RePack

Assassins Creed: Odyssey

RePack

NEED FOR SPEED™ PAYBACK

4 сезон

9 сезон

Бесстыжие 9 сезон

Все сериалы

все сериалы на PB.wtf

RePack

FAR CRY 5
  

Зеленая карета (Олег Асадулин) [2015, драма, WEB-DLRip] [Русский] pb.wtf

Зеленая карета через торрент pb.wtf

Размер: 1.45 GB | Добавлен: 4 года 5 мес. назад | Торрент скачан:1029 раз
Скачать  

17-12-2015 07:52 Зеленая карета Скачать торрент  

Зеленая карета«Жизнь - это совсем другое кино»

  • Год выхода: 2015
  • Жанр: драма
  • Страна: Россия
  • Продолжительность: 01:30:27
  • Перевод: Не требуется [iTunes]
  • Режиссер: Олег Асадулин
  • В ролях:

    Андрей Мерзликин (Вадим Раевский), Виктория Исакова (Вера Раевская), Александр Мичков (Тёма), Сергей Юшкевич (Паша), Владимир Меньшов (профессор Добролюбов), Анна Чиповская (Марина), Ян Цапник, Женя Малахова, Дмитрий Астрахан, Андрей Леонов, Дмитрий Смирнов (Макс), Ксения Энтелис


  • Вадим Раевский - известный режиссер, у которого есть все: деньги, красивые женщины, всеобщее признание. Его новый фильм даже выдвигают на «Оскар». Казалось, удача сама преследует его, но всегда ли она будет к нему благосклонна? Буквально в один миг его привычный мир рушится. Вадим пытается разобраться в случившемся, но чем дальше он заходит в своем расследовании, тем больше шокирующих подробностей ему открывается...

  • Качество: WEB-DLRip
  • Формат: AVI
  • Видео кодек: XviD
  • Аудио кодек: AC3
  • Видео: XviD, 720x304 (2.35:1), 1818 kbps, 25 fps, 0,332 bpp
  • Аудио: AC3 / 5.1 / 48 kHz / 384 kbps / 16 bit

    Код:

    General
    Complete name                            : H:\3eleHaia.Kareta.2015.O.WEB-DLRip.1.46GB.avi
    Format                                   : AVI
    Format/Info                              : Audio Video Interleave
    File size                                : 1.45 GiB
    Duration                                 : 1h 30mn
    Overall bit rate                         : 2 303 Kbps
    Writing application                      : VirtualDubMod 1.5.10.2 (build 2540/release)
    Writing library                          : VirtualDubMod build 2540/release

    Video
    ID                                       : 0
    Format                                   : MPEG-4 Visual
    Format profile                           : Advanced Simple@L5
    Format settings, BVOP                    : 2
    Format settings, QPel                    : No
    Format settings, GMC                     : No warppoints
    Format settings, Matrix                  : Default (MPEG)
    Codec ID                                 : XVID
    Codec ID/Hint                            : XviD
    Duration                                 : 1h 30mn
    Bit rate                                 : 1 818 Kbps
    Width                                    : 720 pixels
    Height                                   : 304 pixels
    Display aspect ratio                     : 2.35:1
    Frame rate                               : 25.000 fps
    Color space                              : YUV
    Chroma subsampling                       : 4:2:0
    Bit depth                                : 8 bits
    Scan type                                : Progressive
    Compression mode                         : Lossy
    Bits/(Pixel*Frame)                       : 0.332
    Stream size                              : 1.15 GiB (79%)
    Writing library                          : XviD 1.2.1 (UTC 2008-12-04)

    Audio
    ID                                       : 1
    Format                                   : AC-3
    Format/Info                              : Audio Coding 3
    Mode extension                           : CM (complete main)
    Codec ID                                 : 2000
    Duration                                 : 1h 30mn
    Bit rate mode                            : Constant
    Bit rate                                 : 384 Kbps
    Channel(s)                               : 6 channels
    Channel positions                        : Front: L C R, Side: L R, LFE
    Sampling rate                            : 48.0 KHz
    Bit depth                                : 16 bits
    Compression mode                         : Lossy
    Stream size                              : 248 MiB (17%)
    Alignment                                : Split accross interleaves

    Скриншоты:


    © Оформление by -Lexx- pb.wtf



  • Скачать Зеленая карета через торрент http://pic.kartinco.top/images/6/stazu.jpg Скачать фильм Зеленая карета через торрент бесплантно в хорошем качестве qw.png Вадим Раевский - известный режиссер, у которого есть все: деньги, красивые женщины, всеобщее признание. Его новый фильм даже ... 9.4 10 24
    Торрент: Зарегистрирован [2015-12-17 07:52] · скачан: 1 029 раз
    Статус: √ проверено
    Размер: 1.45 GB
    Как cкачать? Как скачать Зеленая карета через торрент | qTorrent

    % Раздел Тема Автор DL S | L
    R.G. Resident & PiratVoice - Фильмы, Видео [ 1.7 GB ] Зеленая карета [2015 WEB-DLRip-AVC] -Lexx- Скачать
    1 | 0
    Наши фильмы (HD, WEB-DL 720p, 1080p) [ 3.09 GB ] Зеленая карета [2015 WEB-DL 1080p] [Русский] -Lexx- Скачать
    1 | 0

    28-11-2019 20:33  

    Отключить всю рекламу на сайте

    17-12-2015 08:06 Зеленая карета Скачать торрент  

    Кто нибудь смотрел,а то стоит или не стоит терять время? pb.wtf



    17-12-2015 17:57 Зеленая карета Скачать торрент  

    Очень хороший фильм.pb.wtf



    13-01-2016 08:09 Зеленая карета Скачать торрент  

    Фильм понравился. Подробнее, например http://удаленоpb.wtf



      ссылка на сторонний ресурс, выдал -Lexx-
      Дорогой пользователь! Огромная просьба, поблагодарите релизера, оцените раздачу и оставьте свои комментарий, если Вы скачали Зеленая карета через торрент бесплатно! Внесите свою лепту в развитие PiratBit!
      Комментировать посты могут только пользователи прошедшие не сложную регистрацию
      Показать сообщения:    

      Зеленая карета через торрент
      Скачать бесплатно Зеленая карета
      Зеленая карета скачать торрент
      Зеленая карета смотреть онлайн
      Cкачать фильм Зеленая карета бесплатно
      Зеленая карета скачать торрент в хорошем качестве
      Зеленая карета смотреть онлайн бесплатно в хорошем качестве


      Вы не можете начинать темы
      Вы не можете отвечать на сообщения
      Вы не можете редактировать свои сообщения
      Вы не можете удалять свои сообщения
      Вы не можете голосовать в опросах
      Вы не можете прикреплять файлы к сообщениям
      Вы можете скачивать файлы