Ссылка на приватное зеркало нашего сайта всего за 1$. Внимание количество ограничено!!!

2 сезон

iTunes

1 сезон

1

2 сезон

2 сезон

iTunes

1 сезон

RePack

30

Новинка

ВАЖНО

ИГРА 18+

pack

RePack

MK11
pack

Забери бонус

RePack

jed

!!Акция!!

Alien_Rage

RePack

fifa19

RePack

Assassins Creed: Odyssey

RePack

NEED FOR SPEED™ PAYBACK

4 сезон

9 сезон

Бесстыжие 9 сезон

Все сериалы

все сериалы на PB.wtf

RePack

FAR CRY 5
  

Конец детства / Childhood's End / Сезон: 1 / Серии: 1-3 из 3 (Ник Харран / Nick Hurran) [2015 г., драма, научная фантастика, WEB-DL 720p] MVO NewStudio pb.wtf

Конец детства через торрент pb.wtf

Размер: 7.97 GB | Добавлен: 4 года 11 мес. назад | Торрент скачан:94 раза
Скачать  

17-12-2015 08:02 Конец детства Скачать торрент  

Конец детства / Childhood's End
Год выпуска: 2015
Страна: США
Жанр: драма, научная фантастика
Продолжительность cерии: ~01:20:00.

  • Перевод: Профессиональный (многоголосый закадровый) NewStudio ;
  • Русские субтитры: нет
  • Оригинальная аудиодорожка: английская

Режиссер: Ник Харран / Nick Hurran
В ролях: Джейкоб Холт, Хейли Магнус, Колм Мини, Эшли Цукерман, Симона Оула, Лаклан Роланд-Кенн, Дэйзи Беттс, Корум Эллис, Ози Икхайл
Описание: Сериал основывается на одноимённом романе фантаста Артура Кларка. Однажды на Землю прибывают таинственные и невероятно могущественные Сверхправители, берущие шефство над бедовыми, неразумными землянами. Их появление знаменует окончание всех земных военных конфликтов и приближает жизнь на планете к утопическому идеалу. Но не всем «подопечным» такие перемены приходятся по душе.

  • Тип релиза: WEBDL 720p
  • Формат: MKV
  • Видео кодек: AVC | Аудио кодек: AC3
  • Видео: MPEG-4 AVC, ~ 3900 Кбит/с, 1280x720
  • Аудио 1: Russian: 48 kHz, АС3, 6 ch, ~384 kbps avg
  • Аудио 2: English: 48 kHz, АС3, 6 ch, ~384 kbps avg
  • Субтитры: нет


Код:

Общее
Уникальный идентификатор                 : 174124878650069611535163374860271661634 (0x82FF3B564B56311FA9750317FE94B242)
Полное имя                               : C:\торрент\тор\Childhood's.End.s01.WEBDL.720p.NewStudio.TV\Childhood's.End.s01e01.WEBDL.720p.NewStudio.TV.mkv
Формат                                   : Matroska
Версия формата                           : Version 4 / Version 2
Размер файла                             : 2,75 Гбайт
Продолжительность                        : 1 ч. 21 м.
Общий поток                              : 4825 Кбит/сек
Дата кодирования                         : UTC 2015-12-17 01:51:11
Программа кодирования                    : mkvmerge v8.2.0 ('World of Adventure') 32bit
Библиотека кодирования                   : libebml v1.3.1 + libmatroska v1.4.2
DURATION                                 : 01:21:29.024000000
NUMBER_OF_FRAMES                         : 152782
NUMBER_OF_BYTES                          : 234673152
_STATISTICS_WRITING_APP                  : mkvmerge v8.2.0 ('World of Adventure') 32bit
_STATISTICS_WRITING_DATE_UTC             : 2015-12-17 01:51:11
_STATISTICS_TAGS                         : BPS DURATION NUMBER_OF_FRAMES NUMBER_OF_BYTES

Видео
Идентификатор                            : 1
Формат                                   : AVC
Формат/Информация                        : Advanced Video Codec
Профиль формата                          : High@L3.1
Параметр CABAC формата                   : Нет
Параметр ReFrames формата                : 2 кадра
Идентификатор кодека                     : V_MPEG4/ISO/AVC
Продолжительность                        : 1 ч. 21 м.
Битрейт                                  : 3961 Кбит/сек
Ширина                                   : 1280 пикселей
Высота                                   : 720 пикселей
Соотношение сторон                       : 16:9
Режим частоты кадров                     : Постоянный
Частота кадров                           : 23,976 кадра/сек
Цветовое пространство                    : YUV
Субдискретизация насыщенности            : 4:2:0
Битовая глубина                          : 8 бит
Тип развёртки                            : Прогрессивная
Бит/(Пиксели*Кадры)                      : 0.179
Размер потока                            : 2,25 Гбайт (82%)
Язык                                     : English
Default                                  : Да
Forced                                   : Нет
Цветовой диапазон                        : Limited
Основные цвета                           : BT.709
Характеристики трансфера                 : BT.709
Коэффициенты матрицы                     : BT.709

Аудио #1
Идентификатор                            : 2
Формат                                   : AC-3
Формат/Информация                        : Audio Coding 3
Расширение режима                        : CM (complete main)
Параметр Endianness формата              : Big
Идентификатор кодека                     : A_AC3
Продолжительность                        : 1 ч. 21 м.
Вид битрейта                             : Постоянный
Битрейт                                  : 384 Кбит/сек
Каналы                                   : 6 каналов
Расположение каналов                     : Front: L C R, Side: L R, LFE
Частота                                  : 48,0 КГц
Метод сжатия                             : С потерями
Размер потока                            : 224 Мбайт (8%)
Заголовок                                : NewStudio.TV
Язык                                     : Russian
Default                                  : Да
Forced                                   : Нет

Аудио #2
Идентификатор                            : 3
Формат                                   : AC-3
Формат/Информация                        : Audio Coding 3
Расширение режима                        : CM (complete main)
Параметр Endianness формата              : Big
Идентификатор кодека                     : A_AC3
Продолжительность                        : 1 ч. 21 м.
Вид битрейта                             : Постоянный
Битрейт                                  : 384 Кбит/сек
Каналы                                   : 6 каналов
Расположение каналов                     : Front: L C R, Side: L R, LFE
Частота                                  : 48,0 КГц
Метод сжатия                             : С потерями
Размер потока                            : 224 Мбайт (8%)
Язык                                     : English
Default                                  : Нет
Forced                                   : Нет

Внимание! Раздача ведётся путём добавления новых серий; при каждом добавлении создаётся новый торрент-файл. Чтобы начать дозакачку новой серии, пользователям необходимо сделать следующее:
(1) остановить скачивание,
(2) удалить старый торрент-файл у себя из клиента (старые серии удалять не надо),
(3) скачать новый торрент-файл и запустить его у себя в клиенте вместо старого, при этом указать клиенту путь в старую папку куда и должно происходить скачивание новых серий.
Ваш клиент при этом должен произвести хеширование (проверку) старой папки (если не производит сам - помогите ему сделать это), и будет докачивать только те серии которых у вас ещё нет. Старые серии при этом не удаляются, а продолжают раздаваться!
Eсли вы уже удалили старые серии, то предотвратить повторную закачку старых серий можно, отжав галочку в соответствующих местах при запуске нового торрента.
Обновлено! Добавлена 3 серия!!!
по 2 серии в 1!!!
Сезон завершен!!!
pb.wtf



Скачать Конец детства через торрент http://pic1.kartinco.top/images/10/31fq9.jpg Скачать фильм Конец детства через торрент бесплантно в хорошем качестве Описание: Сериал основывается на одноимённом романе фантаста Артура Кларка. Однажды на Землю прибывают таинственные и невероятно ... 9.4 10 14
Info! Золотая раздача, скачанное не засчитывается.
Торрент: Зарегистрирован [2015-12-19 16:55] · скачан: 94 раз
Статус: √ проверено
Размер: 7.97 GB
Как cкачать? Как скачать Конец детства через торрент | qTorrent



Последний раз редактировалось: diletant (2015-12-19 16:55), всего редактировалось 3 раз(а)

28-11-2019 20:33  

Отключить всю рекламу на сайте

17-12-2015 14:21 Конец детства Скачать торрент  

Даты выхода серий
1 сезон
6 серия
6
32 дня
18 января 2016
5 серия
5
25 дней
11 января 2016
4 серия
4
18 дней
04 января 2016
3 серия
The Children
16 декабря 2015
2 серия
The Deceivers
15 декабря 2015
1 серия
The Overlords
14 декабря 2015pb.wtf



19-12-2015 19:41 Конец детства Скачать торрент  

Можно смотреть или как? Затея вроде серьезная, все-же Артур Кларк...pb.wtf



20-12-2015 08:47 Конец детства Скачать торрент  

jeanacler писал(а):

Можно смотреть или как? Затея вроде серьезная, все-же Артур Кларк...

посмотрите конечноpb.wtf



20-12-2015 20:47 Конец детства Скачать торрент  

vasik-84 писал(а):

Даты выхода серий
1 сезон
6 серия
6
32 дня
18 января 2016
5 серия
5
25 дней
11 января 2016
4 серия
4
18 дней
04 января 2016
3 серия
The Children
16 декабря 2015
2 серия
The Deceivers
15 декабря 2015
1 серия
The Overlords
14 декабря 2015

посмотрел. Мрак.. Безнадега..pb.wtf



22-12-2015 11:44 Конец детства Скачать торрент  

Фильм, безусловно, хороший, однако, в конце не раскрыт смысл происходящего и если не читал сам роман, понять что-же произошло будет сложно, если вообще возможно. Создатели чересчур увлеклись собственным привнесенным мелодраматизмом в ущерб оригинальной концепции романа.pb.wtf



    Дорогой пользователь! Огромная просьба, поблагодарите релизера, оцените раздачу и оставьте свои комментарий, если Вы скачали Конец детства через торрент бесплатно! Внесите свою лепту в развитие PiratBit!
    Комментировать посты могут только пользователи прошедшие не сложную регистрацию
    Показать сообщения:    

    Конец детства через торрент
    Скачать бесплатно Конец детства
    Конец детства скачать торрент
    Конец детства смотреть онлайн
    Cкачать фильм Конец детства бесплатно
    Конец детства скачать торрент в хорошем качестве
    Конец детства смотреть онлайн бесплатно в хорошем качестве


    Вы не можете начинать темы
    Вы не можете отвечать на сообщения
    Вы не можете редактировать свои сообщения
    Вы не можете удалять свои сообщения
    Вы не можете голосовать в опросах
    Вы не можете прикреплять файлы к сообщениям
    Вы можете скачивать файлы