2 сезон

iTunes

1 сезон

1

iTunes

iTunes

iTunes

1 сезон

RePack

30

ИГРА 18+

pack

ВАЖНО

!!Акция!!

Alien_RageХит недели

RePack

MK11
pack

Забери бонус

RePack

jed

!!Акция!!

Alien_Rage

RePack

fifa19

RePack

Assassins Creed: Odyssey

RePack

NEED FOR SPEED™ PAYBACK

4 сезон

9 сезон

Бесстыжие 9 сезон

Все сериалы

все сериалы на PB.wtf

RePack

FAR CRY 5
  

Другой майор Соколов / Сезон: 1 / Серии: 1-32 из 32 (Карен Захаров) [2015, Криминал, боевик, HDTV 1080i] pb.wtf

Другой майор Соколов через торрент pb.wtf

Размер: 85.98 GB | Добавлен: 4 года 10 мес. назад | Торрент скачан:27 раз
Скачать  

17-12-2015 09:48 Другой майор Соколов Скачать торрент  

Другой майор Соколов
Год выпуска: 2015
Производство: Россия, Кинокомпания "Пирамида" по заказу НТВ
Жанр: Криминал, боевик
Продолжительность: 32x~00:45:00
Субтитры: Нет
Режиссёр: Карен Захаров
В ролях: Вадим Андреев, Константин Соловьёв, Анастасия Панина, Александр Наумов, Филипп Бледный, Денис Варенов, Олег Клёнов (II), Андрей Ерофеев, Марина Волкова, Антон Степанов, Вероника Лысакова, Александра Артемьева, Алёна Чехова, Александр Сергеев (IV), Юрий Маслак, Наталья Тищенко, Виктор Пилипко, Иван Непомнящий, Полина Кутихина, Евгений Венедиктов, Анатолий Завьялов, Виктория Адельфина, Евгений Кравченко, Олеся Буртолик-Белоцкая, Алла Малкова, Дмитрий Сапронов, Александр Хованский (II), Денис Сердюков, Анастасия Пономарёва, Виктор Фалалеев, Владимир Балашов (II), Илья Бледный, Ольга Волхонская, Дмитрий Грачев (II), Игорь Трошин, Евгений Галенко, Александр Серов-Останкинский, Елена Войновская, Дмитрий Умеров, Антон Сёмкин, Дмитрий Родонов, Татьяна Мазур, Павел Данилов, Александр Коньшин
Описание: В центре нового захватывающего боевика НТВ «Другой майор Соколов» – работа специальной службы – Управления собственной безопасности, которое расследует преступления, совершаемые работниками правоохранительных органов. Лучшие сотрудники управления – Влад Соколов (Константин Соловьёв), Андрей Гордеев (Филипп Бледный), Марина Ветрова (Анастасия Панина) и Олег Ершов (Александр Наумов) служат в группе под руководством полковника Ладыгина (Вадим Андреев). Казалось бы, их служба не отличается от службы обычных полицейских: оперативная разработка, прослушка, слежка, опрос свидетелей, арест преступников… С одной лишь только разницей – они расследуют дела своих коллег. Между сотрудниками Управления и простыми полицейскими – пропасть. Вокруг группы – атмосфера недоверия и подозрительности. Им часто приходится работать в условиях тотального отчуждения. Но все действуют по закону, а майор Соколов – по справедливости...
Релиз: Rip by Nikolspup от MediaClub

Семпл
Качество: HDTV 1080i
Формат: TS
Видео кодек: AVC
Аудио кодек: MP2
Видео: MPEG-4 AVC, ~ 7865 Кбит/с, 1920x1080, 25 кадр/с, 0.152 Бит/(Пиксели*Кадры)
Аудио: MP2, 2 ch, 192 Кбит/с, 48,0 КГц
Общее
Идентификатор : 1 (0x1)
Полное имя : F:\Фильмы торренты\Drugoy.mayor.Sokolov.2015.(1080i).MediaClub\Drugoy.mayor.Sokolov.(01.seriya).2015.(1080i).MediaClub.ts
Формат : MPEG-TS
Размер файла : 2,70 Гбайт
Продолжительность : 45 м.
Режим общего битрейта : Переменный
Общий поток : 8478 Кбит/сек

Видео
Идентификатор : 901 (0x385)
Идентификатор меню : 90 (0x5A)
Формат : AVC
Формат/Информация : Advanced Video Codec
Профиль формата : Main@L4.0
Параметр CABAC формата : Да
Параметр ReFrames формата : 2 кадра
Идентификатор кодека : 27
Продолжительность : 45 м.
Битрейт : 7865 Кбит/сек
Ширина : 1920 пикселей
Высота : 1080 пикселей
Соотношение сторон : 16:9
Частота кадров : 25,000 кадров/сек
Цветовое пространство : YUV
Субдискретизация насыщенности : 4:2:0
Битовая глубина : 8 бит
Тип развёртки : MBAFF
Бит/(Пиксели*Кадры) : 0.152
Размер потока : 2,51 Гбайт (93%)
Основные цвета : BT.709
Характеристики трансфера : BT.709
Коэффициенты матрицы : BT.709

Аудио
Идентификатор : 902 (0x386)
Идентификатор меню : 90 (0x5A)
Формат : MPEG Audio
Версия формата : Version 1
Профиль формата : Layer 2
Идентификатор кодека : 3
Продолжительность : 45 м.
Вид битрейта : Постоянный
Битрейт : 192 Кбит/сек
Каналы : 2 канала
Частота : 48,0 КГц
Метод сжатия : С потерями
Размер потока : 62,7 Мбайт (2%)
Язык : Russian
При каждом добавлении создаётся новый торрент. Чтобы начать докачку новой серии, пользователям необходимо сделать следующее:
(1) остановить скачивание,
(2) удалить старый торрент у себя из клиента (старые серии удалять не надо),
(3) скачать новый торрент и запустить его у себя в клиенте вместо старого, при этом указать клиенту путь в старую папку куда и должно происходить скачивание новых серий.
Ваш клиент при этом должен произвести хеширование (проверку) старой папки (если не производит сам - помогите ему сделать это), и будет докачивать только те серии которых у вас ещё нет. Старые серии при этом не удаляются, а продолжают раздаваться!
Eсли вы уже удалили старые серии, то предотвратить повторную закачку старых серий можно, отжав галочку в соответствующих местах при запуске нового торрента. По возможности, желательно не удалять старые серии как можно дольше чтобы релизёр не столько продолжал раздавать старые серии, а смог сконцентрироваться на новых.
pb.wtf



Скачать Другой майор Соколов через торрент http://s019.radikal.ru/i609/1512/7b/a9e4ef89fcbf.jpg Скачать фильм Другой майор Соколов через торрент бесплантно в хорошем качестве Описание: В центре нового захватывающего боевика НТВ «Другой майор Соколов» – работа специальной службы – Управления собственной ... 7.8 10 4
Info! Золотая раздача, скачанное не засчитывается.
Торрент: Зарегистрирован [2015-12-28 18:23] · скачан: 27 раз
Статус: √ проверено
Размер: 85.98 GB
Как cкачать? Как скачать Другой майор Соколов через торрент | qTorrent

% Раздел Тема Автор DL S | L
Наши сериалы [ 22.22 GB ] Другой майор Соколов / Сезон: 1 / Серии: 1-32 из 32 [2015 HDTVRip-AVC] bober100 Скачать
1 | 0
Наши сериалы [ 49.78 GB ] Другой майор Соколов / Сезон: 1 / Серии: 1-32 из 32 [2015 HDTVRip 720p] DomSarD Скачать
1 | 0
Наши сериалы [ 18.87 GB ] Другой майор Соколов / Сезон: 1 / Серии 1-32 из 32 [2015 Россия SATRip] GEKADOL Скачать
1 | 0


Последний раз редактировалось: DomSarD (2015-12-28 18:22), всего редактировалось 6 раз(а)

28-11-2019 20:33  

Отключить всю рекламу на сайте

17-12-2015 19:38 Другой майор Соколов Скачать торрент  

Добавлены 7-8 серииpb.wtf



19-12-2015 06:13 Другой майор Соколов Скачать торрент  

Добавлены 9-12 серииpb.wtf



21-12-2015 21:44 Другой майор Соколов Скачать торрент  

Добавлены 13-16 серииpb.wtf



28-12-2015 18:25 Другой майор Соколов Скачать торрент  

Добавлены 17-32 серииpb.wtf



    Дорогой пользователь! Огромная просьба, поблагодарите релизера, оцените раздачу и оставьте свои комментарий, если Вы скачали Другой майор Соколов через торрент бесплатно! Внесите свою лепту в развитие PiratBit!
    Комментировать посты могут только пользователи прошедшие не сложную регистрацию
    Показать сообщения:    

    Другой майор Соколов через торрент
    Скачать бесплатно Другой майор Соколов
    Другой майор Соколов скачать торрент
    Другой майор Соколов смотреть онлайн
    Cкачать фильм Другой майор Соколов бесплатно
    Другой майор Соколов скачать торрент в хорошем качестве
    Другой майор Соколов смотреть онлайн бесплатно в хорошем качестве


    Вы не можете начинать темы
    Вы не можете отвечать на сообщения
    Вы не можете редактировать свои сообщения
    Вы не можете удалять свои сообщения
    Вы не можете голосовать в опросах
    Вы не можете прикреплять файлы к сообщениям
    Вы можете скачивать файлы