Ссылка на приватное зеркало нашего сайта всего за 1$. Внимание количество ограничено!!!

2 сезон

iTunes

1 сезон

1

2 сезон

2 сезон

iTunes

1 сезон

RePack

30

Ultimate

ВАЖНО

ИГРА 18+

pack

RePack

MK11
pack

Забери бонус

RePack

jed

!!Акция!!

Alien_Rage

RePack

fifa19

RePack

Assassins Creed: Odyssey

RePack

NEED FOR SPEED™ PAYBACK

4 сезон

9 сезон

Бесстыжие 9 сезон

Все сериалы

все сериалы на PB.wtf

RePack

FAR CRY 5
  

Люди Икс: Первый класс / X-Men: First Class (Мэттью Вон) [2011 г., фантастика, боевик, приключения, HDRip-AVC, Дубляж Лицензия + Оригинал] от R.G. Resident pb.wtf

Люди Икс: Первый класс через торрент pb.wtf

Размер: 3.2 GB | Добавлен: 4 года 11 мес. назад | Торрент скачан:90 раз
Скачать  

17-12-2015 17:36 Люди Икс: Первый класс Скачать торрент  

Люди Икс: Первый класс / X-Men: First ClassГод выпуска: 2011
Страна: США, Великобритания
Жанр: фантастика, боевик, приключения
Продолжительность: 02:11:42
Перевод: Дубляж | Лицензия + Оригинал
Субтитры: Русские (полные и форсированные), Английские | UTF-8

Режиссер: Мэттью Вон
Продюссер: Грегори Гудман, Саймон Кинберг, Лорен Шулер Доннер
Сценарий: Эшли Миллер, Зак Стенц, Джейн Голдман

Бюджет: $160 000 000
Премьера в мире: 25 мая 2011



В ролях: Джеймс МакЭвой, Майкл Фассбендер, Кевин Бейкон, Роуз Бирн, Дженнифер Лоуренс, Дженьюэри Джонс, Николас Холт, Лукас Тилл, Калеб Лэндри Джонс, Зои Кравиц, Евгений Вальц, Илья Исаев, Борис Шувалов, Елена Чебатуркина, Татьяна Шитова

Описание: Фильм расскажет о том, как сформировались профессор Ксавьер и Магнито, о процессе основания школы профессора для детей-мутантов и, наконец, о том, что же произошло между двумя закадычными друзьями и почему они расстались.

Качество: HDRip-AVC | BDRip 1080p
Формат: MKV
Видео кодек: H.264
Аудио кодек: AC3
Видео: 1024x432 (2,40:1), 23,976 fps, AVC (High L.4.1) ~2580 kbps, 0.243 bit/pixel
Аудио#1: 48 kHz, AC3 Dolby Digital, 3/2 (L,C,R,l,r) + LFE ch, ~448 kbps |RUS|
Аудио#2: 48 kHz, AC3 Dolby Digital, 3/2 (L,C,R,l,r) + LFE ch, ~448 kbps |ENG|



Автор рипа: Dean24
| | R.G. Resident
log
_______________________________________

avs [info]: 1024x432p 1:1 @ 2500000/104271 fps (cfr)
x264 [info]: using SAR=1/1
x264 [info]: using cpu capabilities: MMX2 SSE2Fast SSSE3 SSE4.2
x264 [info]: profile High, level 4.1
x264 [info]: frame I:2007 Avg QP:15.57 size: 79287
x264 [info]: frame P:45301 Avg QP:18.57 size: 26064
x264 [info]: frame B:142173 Avg QP:20.61 size: 8476
x264 [info]: consecutive B-frames: 3.6% 3.4% 10.6% 18.5% 29.4% 31.2% 2.3% 1.0%
x264 [info]: mb I I16..4: 4.9% 75.6% 19.5%
x264 [info]: mb P I16..4: 1.1% 12.5% 1.6% P16..4: 34.2% 28.8% 15.8% 0.0% 0.0% skip: 6.0%
x264 [info]: mb B I16..4: 0.1% 0.9% 0.2% B16..8: 38.3% 13.3% 4.7% direct: 6.8% skip:35.8% L0:41.2% L1:44.4% BI:14.4%
x264 [info]: 8x8 transform intra:80.3% inter:53.4%
x264 [info]: direct mvs spatial:97.4% temporal:2.6%
x264 [info]: coded y,uvDC,uvAC intra: 89.1% 78.8% 54.9% inter: 30.5% 19.6% 7.6%
x264 [info]: i16 v,h,dc,p: 35% 15% 11% 39%
x264 [info]: i8 v,h,dc,ddl,ddr,vr,hd,vl,hu: 9% 9% 10% 9% 13% 12% 13% 11% 13%
x264 [info]: i4 v,h,dc,ddl,ddr,vr,hd,vl,hu: 9% 9% 4% 9% 15% 14% 15% 11% 14%
x264 [info]: i8c dc,h,v,p: 45% 24% 17% 14%
x264 [info]: Weighted P-Frames: Y:4.0% UV:2.1%
x264 [info]: ref P L0: 47.1% 11.4% 17.1% 6.0% 5.1% 2.9% 2.8% 1.3% 1.6% 0.9% 0.9% 0.7% 0.7% 0.5% 0.6% 0.4%
x264 [info]: ref B L0: 74.4% 11.2% 4.5% 2.5% 2.0% 1.7% 1.0% 0.7% 0.5% 0.4% 0.3% 0.3% 0.3% 0.2% 0.1%
x264 [info]: ref B L1: 93.7% 6.3%
x264 [info]: kb/s:2576.18

_______________________________________
Общее
Уникальный идентификатор : 201826530716494124925900245519739228986 (0x97D6603B7F8210D5A7ACF1358685933A)
Полное имя : D:\Мои документы\Фильмы\Сайт\X-Men.First.Class.HDRip-AVC.mkv
Формат : Matroska
Версия формата : Version 4 / Version 2
Размер файла : 3,20 Гбайт
Продолжительность : 2 ч. 11 м.
Общий поток : 3474 Кбит/сек
Название фильма : X-Men.First.Class.HDRip-AVC.by.Dean24.R.G.Resident
Дата кодирования : UTC 2015-12-08 21:20:11
Программа кодирования : mkvmerge v8.3.0 ('Over the Horizon') 64bit
Библиотека кодирования : libebml v1.3.1 + libmatroska v1.4.2
DURATION : 02:02:56.369000000
NUMBER_OF_FRAMES : 1410
NUMBER_OF_BYTES : 46952
_STATISTICS_WRITING_APP : mkvmerge v8.3.0 ('Over the Horizon') 64bit
_STATISTICS_WRITING_DATE_UTC : 2015-12-08 21:20:11
_STATISTICS_TAGS : BPS DURATION NUMBER_OF_FRAMES NUMBER_OF_BYTES

Видео
Идентификатор : 1
Формат : AVC
Формат/Информация : Advanced Video Codec
Профиль формата : High@L4.1
Параметр CABAC формата : Да
Параметр ReFrames формата : 16 кадров
Идентификатор кодека : V_MPEG4/ISO/AVC
Продолжительность : 2 ч. 11 м.
Битрейт : 2580 Кбит/сек
Ширина : 1024 пикселя
Высота : 432 пикселя
Соотношение сторон : 2,40:1
Режим частоты кадров : Постоянный
Частота кадров : 23,976 кадра/сек
Цветовое пространство : YUV
Субдискретизация насыщенности : 4:2:0
Битовая глубина : 8 бит
Тип развёртки : Прогрессивная
Бит/(Пиксели*Кадры) : 0.243
Размер потока : 2,31 Гбайт (72%)
Библиотека кодирования : x264 core 146 r2538 121396c
Настройки программы : cabac=1 / ref=16 / deblock=1:-2:-2 / analyse=0x3:0x113 / me=umh / subme=10 / psy=1 / psy_rd=1.00:0.00 / mixed_ref=1 / me_range=32 / chroma_me=1 / trellis=2 / 8x8dct=1 / cqm=0 / deadzone=21,11 / fast_pskip=0 / chroma_qp_offset=-2 / threads=6 / lookahead_threads=1 / sliced_threads=0 / nr=0 / decimate=0 / interlaced=0 / bluray_compat=0 / constrained_intra=0 / bframes=7 / b_pyramid=2 / b_adapt=2 / b_bias=0 / direct=3 / weightb=1 / open_gop=0 / weightp=2 / keyint=240 / keyint_min=23 / scenecut=40 / intra_refresh=0 / rc_lookahead=60 / rc=2pass / mbtree=0 / bitrate=2580 / ratetol=1.0 / qcomp=0.60 / qpmin=0 / qpmax=69 / qpstep=4 / cplxblur=20.0 / qblur=0.5 / vbv_maxrate=14000 / vbv_bufsize=14000 / nal_hrd=none / filler=0 / ip_ratio=1.40 / pb_ratio=1.30 / aq=1:0.80
Default : Да
Forced : Нет

Аудио #1
Идентификатор : 2
Формат : AC-3
Формат/Информация : Audio Coding 3
Расширение режима : CM (complete main)
Параметр Endianness формата : Big
Идентификатор кодека : A_AC3
Продолжительность : 2 ч. 11 м.
Вид битрейта : Постоянный
Битрейт : 448 Кбит/сек
Каналы : 6 каналов
Расположение каналов : Front: L C R, Side: L R, LFE
Частота : 48,0 КГц
Битовая глубина : 16 бит
Метод сжатия : С потерями
Размер потока : 422 Мбайт (13%)
Default : Да
Forced : Нет

Аудио #2
Идентификатор : 3
Формат : AC-3
Формат/Информация : Audio Coding 3
Расширение режима : CM (complete main)
Параметр Endianness формата : Big
Идентификатор кодека : A_AC3
Продолжительность : 2 ч. 11 м.
Вид битрейта : Постоянный
Битрейт : 448 Кбит/сек
Каналы : 6 каналов
Расположение каналов : Front: L C R, Side: L R, LFE
Частота : 48,0 КГц
Битовая глубина : 16 бит
Метод сжатия : С потерями
Размер потока : 422 Мбайт (13%)
Заголовок : Eng
Язык : English
Default : Нет
Forced : Нет

Текст #1
Идентификатор : 4
Формат : UTF-8
Идентификатор кодека : S_TEXT/UTF8
Идентификатор кодека/Информация : UTF-8 Plain Text
Заголовок : Rus forced
Язык : Russian
Default : Да
Forced : Да

Текст #2
Идентификатор : 5
Формат : UTF-8
Идентификатор кодека : S_TEXT/UTF8
Идентификатор кодека/Информация : UTF-8 Plain Text
Заголовок : Rus
Язык : Russian
Default : Нет
Forced : Нет

Текст #3
Идентификатор : 6
Формат : UTF-8
Идентификатор кодека : S_TEXT/UTF8
Идентификатор кодека/Информация : UTF-8 Plain Text
Заголовок : Eng
Язык : English
Default : Нет
Forced : Нет

pb.wtf



Скачать Люди Икс: Первый класс через торрент http://i73.fastpic.ru/big/2015/1217/87/f6301e254e55eb64be5cb145a6321f87.png Скачать фильм Люди Икс: Первый класс через торрент бесплантно в хорошем качестве Описание: Фильм расскажет о том, как сформировались профессор Ксавьер и Магнито, о процессе основания школы профессора для детей-мутантов ... 8.3 10 6
Info! Золотая раздача, скачанное не засчитывается.
Торрент: Зарегистрирован [2015-12-17 17:36] · скачан: 90 раз
Статус: √ проверено
Размер: 3.2 GB
Как cкачать? Как скачать Люди Икс: Первый класс через торрент | qTorrent

28-11-2019 20:33  

Отключить всю рекламу на сайте

    Дорогой пользователь! Огромная просьба, поблагодарите релизера, оцените раздачу и оставьте свои комментарий, если Вы скачали Люди Икс: Первый класс через торрент бесплатно! Внесите свою лепту в развитие PiratBit!
    Комментировать посты могут только пользователи прошедшие не сложную регистрацию
    Показать сообщения:    

    Люди Икс: Первый класс через торрент
    Скачать бесплатно Люди Икс: Первый класс
    Люди Икс: Первый класс скачать торрент
    Люди Икс: Первый класс смотреть онлайн
    Cкачать фильм Люди Икс: Первый класс бесплатно
    Люди Икс: Первый класс скачать торрент в хорошем качестве
    Люди Икс: Первый класс смотреть онлайн бесплатно в хорошем качестве


    Вы не можете начинать темы
    Вы не можете отвечать на сообщения
    Вы не можете редактировать свои сообщения
    Вы не можете удалять свои сообщения
    Вы не можете голосовать в опросах
    Вы не можете прикреплять файлы к сообщениям
    Вы можете скачивать файлы