Ссылка на приватное зеркало всего за 1$. Внимание количество ограничено!!!

OK

1+1

iTunes

мы

OK

1

WEB-DLRip

Джокер

Пифагор

Ведьмак / The Witcher сериал

iTunes

ПШазам

ОК

Оно 2

iTunes

30
pack

Вам бонус

ВАЖНО

!!Акция!!

Alien_RageХит недели

RePack

Resident Evil 21

ИГРА 18+

pack

RePack

jed

RePack

fifa19

RePack

Assassins Creed: Odyssey

RePack

NEED FOR SPEED™ PAYBACK

4 сезон

9 сезон

Бесстыжие 9 сезон

Все сериалы

все сериалы на PB.wtf

RePack

FAR CRY 5
  

Прогулка / The Walk (Роберт Земекис) [2015 г., триллер, драма, приключения, биография, HDRip] DUB [iTunes] pb.wtf

Прогулка через торрент pb.wtf

Размер: 2.05 GB | Добавлен: 4 года 1 мес. назад | Торрент скачан:121 раз
Скачать  

18-12-2015 14:48 Прогулка Скачать торрент  

Прогулка
The Walk

Год выпуска » 2015
Страна » США
Жанр » Триллер, драма, приключения, биография
Продолжительность » 02:03:24
Перевод » Профессиональный (полное дублирование) [iTunes]
Субтитры » Русские [форсированные]

В ролях
» Джозеф Гордон-Левитт, Бен Кингсли, Стив Валентайн, Шарлотта Ле Бон, Джеймс Бэдж Дэйл, Бен Шварц, Бенедикт Сэмюэл, Мизинга Мвинга, Дэниэл Аррош, Джейсон Делайн

Режиссёр
» Роберт Земекис
ОПИСАНИЕ:
» Вы боитесь высоты? А можете представить себя идущим по натянутому канату на высоте более 400м без всякой страховки? Потоки ветра обдувают вас, а внизу — город и тысячи взволнованных взглядов, устремленных вверх. История о том, как французский канатоходец Филипп Пети отважился совершить легендарный трюк — пройти без страховки по канату, натянутому между небоскребами в Нью-Йорке.
• Качество » HDRip
• Формат » avi
• Видео кодек » XviD
• Аудио кодек » AC3
• Видео » 720x304, 23.976 fps, 1990 Кбит/с
• Аудио » • Русский (384 kb/s, 6 ch, 48.0 KHz )


Общее
Полное имя : E:\ProgulKa.2100\PrOgulka.2015.D.HDRip.21OOMb.avi
Формат : AVI
Формат/Информация : Audio Video Interleave
Профиль формата : OpenDML
Размер файла : 2,05 Гбайт
Продолжительность : 2 ч. 3 м.
Общий поток : 2386 Кбит/сек
Программа кодирования : VirtualDubMod 1.5.10.2 (build 2540/release)
Библиотека кодирования : VirtualDubMod build 2540/release

Видео
Идентификатор : 0
Формат : MPEG-4 Visual
Профиль формата : Advanced Simple@L5
Параметр BVOP формата : 2
Параметр QPel формата : Нет
Параметр GMC формата : Без точки перехода
Параметр матрицы формата : Default (MPEG)
Идентификатор кодека : XVID
Идентификатор кодека/Подсказка : XviD
Продолжительность : 2 ч. 3 м.
Битрейт : 1990 Кбит/сек
Ширина : 720 пикселей
Высота : 304 пикселя
Соотношение сторон : 2,35:1
Частота кадров : 23,976 кадра/сек
Цветовое пространство : YUV
Субдискретизация насыщенности : 4:2:0
Битовая глубина : 8 бит
Тип развёртки : Прогрессивная
Метод сжатия : С потерями
Бит/(Пиксели*Кадры) : 0.379
Размер потока : 1,71 Гбайт (83%)
Библиотека кодирования : XviD 1.2.1 (UTC 2008-12-04)

Аудио
Идентификатор : 1
Формат : AC-3
Формат/Информация : Audio Coding 3
Расширение режима : CM (complete main)
Параметр Endianness формата : Big
Идентификатор кодека : 2000
Продолжительность : 2 ч. 3 м.
Вид битрейта : Постоянный
Битрейт : 384 Кбит/сек
Каналы : 6 каналов
Расположение каналов : Front: L C R, Side: L R, LFE
Частота : 48,0 КГц
Битовая глубина : 16 бит
Метод сжатия : С потерями
Размер потока : 338 Мбайт (16%)
Выравнивание : Разделение по промежуткам
Продолжительность промежутка : 42 мс. (1,00 видеокадр)
Время предзагрузки промежутка : 500 мс.
скриншот   скриншот   скриншот  
pb.wtf



Скачать Прогулка через торрент http://i74.fastpic.ru/big/2015/1218/b5/c39d072d168dbcde95d1a17f670689b5.gif Скачать фильм Прогулка через торрент бесплантно в хорошем качестве ОПИСАНИЕ: » Вы боитесь высоты? А можете представить себя идущим по натянутому канату на высоте более 400м без всякой страховки? Потоки ... 9 10 9
Торрент: Зарегистрирован [2015-12-18 15:10] · скачан: 121 раз
Статус: √ проверено
Размер: 2.05 GB
Как cкачать? Как скачать Прогулка через торрент | qTorrent

% Раздел Тема Автор DL S | L
Фильмы с авторской озвучкой [ 1.46 GB ] Прогулка в облаках / A Walk in the Clouds [1995 BDRip] [AVO] killermax2013 Скачать
1 | 0
Фильмы [HD 720p, 1080p] (Хороший звук DUB, MVO) [ 5.76 GB ] Прогулка / The Walk [2015 BDRip 720p] DUB potroks Скачать
2 | 0
Фильмы [HD 720p, 1080p] (Хороший звук DUB, MVO) [ 11.48 GB ] Прогулка среди могил / A Walk Among the Tombstones [2014 BDRip 1080p] DUB [iPTV] 2х AVO $-DRON-$ Скачать
1 | 0
R.G. Resident & PiratVoice - Фильмы, Видео [ 1.56 GB ] Прогулка среди могил / A Walk Among the Tombstones [2014 BDRip-AVC - [IPTV] R.G.Resident schultz Скачать
1 | 0
Фильмы [HD 720p, 1080p] (Хороший звук DUB, MVO) [ 5.74 GB ] Прогулка среди могил / A Walk Among the Tombstones [2014 BDRip 720p] DUB AVO potroks Скачать
1 | 0
Фильмы (DVD фильмы) [ 6.87 GB ] Прогулка / The Walk [2015 биография DVD9] DUB R5 voovaz Скачать
1 | 0
T Фильмы 2014 [DVDrip, WEB-DLRip, HDrip] [ 1.47 GB ] Прогулка среди могил / A Walk Among the Tombstones [2014 BDRip ] / Чистый звук Twi7ter Скачать
1 | 0

28-11-2019 20:33  

Отключить всю рекламу на сайте

18-12-2015 18:17 Прогулка Скачать торрент  

$-DRON-$, Картинка отстаёт от звука скачал и удалил нафиг!pb.wtf



    Дорогой пользователь! Огромная просьба, поблагодарите релизера, оцените раздачу и оставьте свои комментарий, если Вы скачали Прогулка через торрент бесплатно! Внесите свою лепту в развитие PiratBit!
    Комментировать посты могут только пользователи прошедшие не сложную регистрацию
    Показать сообщения:    

    Прогулка через торрент
    Скачать бесплатно Прогулка
    Прогулка скачать торрент
    Прогулка смотреть онлайн
    Cкачать фильм Прогулка бесплатно
    Прогулка скачать торрент в хорошем качестве
    Прогулка смотреть онлайн бесплатно в хорошем качестве


    Вы не можете начинать темы
    Вы не можете отвечать на сообщения
    Вы не можете редактировать свои сообщения
    Вы не можете удалять свои сообщения
    Вы не можете голосовать в опросах
    Вы не можете прикреплять файлы к сообщениям
    Вы можете скачивать файлы