Ссылка на приватное зеркало всего за 1$. Внимание количество ограничено!!!

iTunes

iTunes

iTunes

1

iTunes

iTunes

iTunes

iTunes

iTunes

30
pack

Новость дня

ВАЖНО

!!Акция!!

Alien_RageХит недели

RePack

Resident Evil 21

ИГРА 18+

pack

RePack

jed

!!Акция!!

Alien_Rage

RePack

fifa19

RePack

Assassins Creed: Odyssey

RePack

NEED FOR SPEED™ PAYBACK

4 сезон

9 сезон

Бесстыжие 9 сезон

Все сериалы

все сериалы на PB.wtf

RePack

FAR CRY 5
  

Переводчик (Алексей Нужный) [2015 г., криминал, драма, WEB-DLRip, Оригинал "iTunes"] pb.wtf

Переводчик через торрент pb.wtf

Размер: 706 MB | Добавлен: 4 года 5 мес. назад | Торрент скачан:115 раз
Скачать  

18-12-2015 18:28 Переводчик Скачать торрент  

Переводчик
Год выпуска: 2015
Страна: Россия
Жанр: криминал, драма
Продолжительность: 01:09:15
Озвучка: Оригинал (iTunes)

Режиссер: Алексей Нужный



В ролях: Леонид Ярмольник, Александр Ильин мл., Мария Андреева, Дмитрий Астрахан, Семен Трескунов, Луиза-Габриэла Бровина, Клара Лаго, Михаил Шамигулов, Станислав Дужников, Елена Плаксина

Описание: Воскресный папа отправляется в командировку вместе со своим двенадцатилетним сыном. Оказавшись свидетелем криминальной разборки, которую затеял главарь местной банды, сын попадает в больницу. Спасти жизнь мальчику может операция за границей. Но она стоит больших денег. Отец решается на отчаянный шаг — он соглашается исполнить три желания главаря банды.

Качество: WEB-DLRip
Формат: AVI
Видео кодек: XviD
Аудио кодек: MP3
Видео: 640x264 (2.42:1), 24.000 fps, XviD build 50 ~1288 kbps avg, 0.32 bit/pixel
Аудио: 48 kHz, MPEG Layer 3, 2 ch, ~128.00 kbps avg
скриншот   скриншот   скриншот   скриншот   скриншот   скриншот  

Общее
Полное имя : F:\кино\Переводчик.2015.WEB-DLRip.700mb.avi
Формат : AVI
Формат/Информация : Audio Video Interleave
Размер файла : 706 Мбайт
Продолжительность : 1 ч. 9 м.
Общий поток : 1426 Кбит/сек
Программа кодирования : VirtualDubMod 1.5.10.3 | www.virtualdub-fr.org || (build 2550/release)
Библиотека кодирования : VirtualDubMod build 2550/release

Видео
Идентификатор : 0
Формат : MPEG-4 Visual
Профиль формата : Advanced Simple@L5
Параметр BVOP формата : 2
Параметр QPel формата : Нет
Параметр GMC формата : Без точки перехода
Параметр матрицы формата : Default (H.263)
Идентификатор кодека : XVID
Идентификатор кодека/Подсказка : XviD
Продолжительность : 1 ч. 9 м.
Битрейт : 1289 Кбит/сек
Ширина : 640 пикселей
Высота : 264 пикселя
Соотношение сторон : 2,40:1
Частота кадров : 24,000 кадра/сек
Цветовое пространство : YUV
Субдискретизация насыщенности : 4:2:0
Битовая глубина : 8 бит
Тип развёртки : Прогрессивная
Метод сжатия : С потерями
Бит/(Пиксели*Кадры) : 0.318
Размер потока : 638 Мбайт (90%)
Библиотека кодирования : XviD 1.2.1 (UTC 2008-12-04)

Аудио
Идентификатор : 1
Формат : MPEG Audio
Версия формата : Version 1
Профиль формата : Layer 3
Режим : Joint stereo
Идентификатор кодека : 55
Идентификатор кодека/Подсказка : MP3
Продолжительность : 1 ч. 9 м.
Вид битрейта : Постоянный
Битрейт : 128 Кбит/сек
Каналы : 2 канала
Частота : 48,0 КГц
Метод сжатия : С потерями
Размер потока : 63,4 Мбайт (9%)
Выравнивание : Соединение по промежуткам
Продолжительность промежутка : 42 мс. (1,00 видеокадр)
Время предзагрузки промежутка : 504 мс.
Библиотека кодирования : LAME3.99r
Настройки программы : -m j -V 4 -q 2 -lowpass 17 -b 128

pb.wtf



Скачать Переводчик через торрент http://pic.kartinco.top/images/11/gsqwc.jpg Скачать фильм Переводчик через торрент бесплантно в хорошем качестве Описание: Воскресный папа отправляется в командировку вместе со своим двенадцатилетним сыном. Оказавшись свидетелем криминальной разборки, ... 6.5 10 4
Торрент: Зарегистрирован [2015-12-18 18:28] · скачан: 115 раз
Статус: √ проверено
Размер: 706 MB
Как cкачать? Как скачать Переводчик через торрент | qTorrent

% Раздел Тема Автор DL S | L
T Фильмы (мультфильмы) cо спонсором показа (Новинки AVI/MKV) [ 1.36 GB ] Переводчики / Les traducteurs [2019 WEB-DLRip] DUB Леонид Ильич Скачать
27 | 0
T Фильмы 2019-2020 (Звук TS, Cam, VO, DVO) [ 1.44 GB ] Переводчик / Un traductor [2018 WEBRip] [DVO] killermax2013 Скачать
3 | 0
Наши новые фильмы 2015 [ 1.32 GB ] Переводчик [2015 WEB-DLRip-AVC] $-DRON-$ Скачать
1 | 0
Наши фильмы (HD, WEB-DL 720p, 1080p) [ 2.16 GB ] Переводчик [2015 WEB DL 720p] $-DRON-$ Скачать
1 | 0
Наши фильмы (HD, WEB-DL 720p, 1080p) [ 2.35 GB ] Переводчик [2015 WEB-DL 1080p Оригинал White Smoke Скачать
1 | 0
Наши новые фильмы 2015 [ 1.37 GB ] Переводчик [2015 WEB-DLRip Оригинал White Smoke Скачать
1 | 0
Наши сериалы [ 7.78 GB ] Переводчик / Серии: 1-4 из 4 [2014 военный DVD9] R5 voovaz Скачать
1 | 0

28-11-2019 20:33  

Отключить всю рекламу на сайте

18-12-2015 18:45 Переводчик Скачать торрент  

Кто смотрел оставте комментарий пожалуста...pb.wtf



    Дорогой пользователь! Огромная просьба, поблагодарите релизера, оцените раздачу и оставьте свои комментарий, если Вы скачали Переводчик через торрент бесплатно! Внесите свою лепту в развитие PiratBit!
    Комментировать посты могут только пользователи прошедшие не сложную регистрацию
    Показать сообщения:    

    Переводчик через торрент
    Скачать бесплатно Переводчик
    Переводчик скачать торрент
    Переводчик смотреть онлайн
    Cкачать фильм Переводчик бесплатно
    Переводчик скачать торрент в хорошем качестве
    Переводчик смотреть онлайн бесплатно в хорошем качестве


    Вы не можете начинать темы
    Вы не можете отвечать на сообщения
    Вы не можете редактировать свои сообщения
    Вы не можете удалять свои сообщения
    Вы не можете голосовать в опросах
    Вы не можете прикреплять файлы к сообщениям
    Вы можете скачивать файлы