Ссылка на приватное зеркало всего за 1$. Внимание количество ограничено!!!

iTunes

iTunes

iTunes

1

iTunes

iTunes

iTunes

iTunes

iTunes

30
pack

Новость дня

ВАЖНО

!!Акция!!

Alien_RageХит недели

RePack

Resident Evil 21

ИГРА 18+

pack

RePack

jed

!!Акция!!

Alien_Rage

RePack

fifa19

RePack

Assassins Creed: Odyssey

RePack

NEED FOR SPEED™ PAYBACK

4 сезон

9 сезон

Бесстыжие 9 сезон

Все сериалы

все сериалы на PB.wtf

RePack

FAR CRY 5
  

Переводчик (Алексей Нужный) [2015, криминал, драма, WEB-DLRip, Оригинал [iTunes] pb.wtf

Переводчик через торрент pb.wtf

Размер: 1.37 GB | Добавлен: 4 года 5 мес. назад | Торрент скачан:522 раза
Скачать  

18-12-2015 20:41 Переводчик Скачать торрент  

Переводчик


Год выпуска: 2015
Страна: Россия
Жанр: криминал, драма
Продолжительность: 01:09:15
Перевод: Оригинал [iTunes]
Режиссер: Алексей Нужный
В ролях:

Леонид Ярмольник, Александр Ильин мл., Мария Андреева, Дмитрий Астрахан, Семен Трескунов, Луиза-Габриэла Бровина, Клара Лаго, Михаил Шамигулов (похититель), Станислав Дужников, Елена Плаксина, Сергей Гутько, Павел Абраменков
Описание:
Воскресный папа отправляется в командировку вместе со своим двенадцатилетним сыном. Оказавшись свидетелем криминальной разборки, которую затеял главарь местной банды, сын попадает в больницу. Спасти жизнь мальчику может операция за границей. Но она стоит больших денег. Отец решается на отчаянный шаг - он соглашается исполнить три желания главаря банды.

Качество: WEB-DLRip
Формат: AVI
Видео: XviD, 720x304 (2.35:1), 2043 kbps, 24 fps, 0,389 bpp
Аудио №1: AC3 / 5.1 / 48 kHz / 384 kbps / 16 bit

Код:

General
Complete name                            : C:\Games\PereVODch1k.2015.O.WEB-DLRip.1400Mb.avi
Format                                   : AVI
Format/Info                              : Audio Video Interleave
File size                                : 1.37 GiB
Duration                                 : 1h 9mn
Overall bit rate                         : 2 826 Kbps
Writing application                      : VirtualDubMod 1.5.10.2 (build 2540/release)
Writing library                          : VirtualDubMod build 2540/release

Video
ID                                       : 0
Format                                   : MPEG-4 Visual
Format profile                           : Advanced Simple@L5
Format settings, BVOP                    : 2
Format settings, QPel                    : No
Format settings, GMC                     : No warppoints
Format settings, Matrix                  : Default (MPEG)
Codec ID                                 : XVID
Codec ID/Hint                            : XviD
Duration                                 : 1h 9mn
Bit rate                                 : 2 044 Kbps
Width                                    : 720 pixels
Height                                   : 304 pixels
Display aspect ratio                     : 2.35:1
Frame rate                               : 24.000 fps
Color space                              : YUV
Chroma subsampling                       : 4:2:0
Bit depth                                : 8 bits
Scan type                                : Progressive
Compression mode                         : Lossy
Bits/(Pixel*Frame)                       : 0.389
Stream size                              : 1 012 MiB (72%)
Writing library                          : XviD 1.2.1 (UTC 2008-12-04)

Audio #1
ID                                       : 1
Format                                   : AC-3
Format/Info                              : Audio Coding 3
Mode extension                           : CM (complete main)
Codec ID                                 : 2000
Duration                                 : 1h 9mn
Bit rate mode                            : Constant
Bit rate                                 : 384 Kbps
Channel(s)                               : 6 channels
Channel positions                        : Front: L C R, Side: L R, LFE
Sampling rate                            : 48.0 KHz
Bit depth                                : 16 bits
Compression mode                         : Lossy
Stream size                              : 190 MiB (14%)
Alignment                                : Split accross interleaves
Interleave, duration                     : 42 ms (1.00 video frame)
Interleave, preload duration             : 500 ms


© Оформление by White Smoke pb.wtf



Скачать Переводчик через торрент http://i5.imageban.ru/out/2015/12/18/e0623c42935f2423a9a4e07cf842c267.jpg Скачать фильм Переводчик через торрент бесплантно в хорошем качестве Описание: Воскресный папа отправляется в командировку вместе со своим двенадцатилетним сыном. Оказавшись свидетелем криминальной разборки, ... 9 10 13
Info! Золотая раздача, скачанное не засчитывается.
Торрент: Зарегистрирован [2015-12-18 20:41] · скачан: 522 раз
Статус: √ проверено
Размер: 1.37 GB
Как cкачать? Как скачать Переводчик через торрент | qTorrent

% Раздел Тема Автор DL S | L
T Фильмы (мультфильмы) cо спонсором показа (Новинки AVI/MKV) [ 1.36 GB ] Переводчики / Les traducteurs [2019 WEB-DLRip] DUB Леонид Ильич Скачать
22 | 0
T Фильмы 2019-2020 (Звук TS, Cam, VO, DVO) [ 1.44 GB ] Переводчик / Un traductor [2018 WEBRip] [DVO] killermax2013 Скачать
2 | 0
Наши новые фильмы 2015 [ 1.32 GB ] Переводчик [2015 WEB-DLRip-AVC] $-DRON-$ Скачать
1 | 0
Наши фильмы (HD, WEB-DL 720p, 1080p) [ 2.16 GB ] Переводчик [2015 WEB DL 720p] $-DRON-$ Скачать
1 | 0
Наши фильмы (HD, WEB-DL 720p, 1080p) [ 2.35 GB ] Переводчик [2015 WEB-DL 1080p Оригинал White Smoke Скачать
1 | 0
Наши новые фильмы 2015 [ 706 MB ] Переводчик [2015 WEB-DLRip Оригинал ""] coc900 Скачать
1 | 0
Наши сериалы [ 7.78 GB ] Переводчик / Серии: 1-4 из 4 [2014 военный DVD9] R5 voovaz Скачать
1 | 0

28-11-2019 20:33  

Отключить всю рекламу на сайте

    Дорогой пользователь! Огромная просьба, поблагодарите релизера, оцените раздачу и оставьте свои комментарий, если Вы скачали Переводчик через торрент бесплатно! Внесите свою лепту в развитие PiratBit!
    Комментировать посты могут только пользователи прошедшие не сложную регистрацию
    Показать сообщения:    

    Переводчик через торрент
    Скачать бесплатно Переводчик
    Переводчик скачать торрент
    Переводчик смотреть онлайн
    Cкачать фильм Переводчик бесплатно
    Переводчик скачать торрент в хорошем качестве
    Переводчик смотреть онлайн бесплатно в хорошем качестве


    Вы не можете начинать темы
    Вы не можете отвечать на сообщения
    Вы не можете редактировать свои сообщения
    Вы не можете удалять свои сообщения
    Вы не можете голосовать в опросах
    Вы не можете прикреплять файлы к сообщениям
    Вы можете скачивать файлы