Ссылка на приватное зеркало всего за 1$. Внимание количество ограничено!!!

OK

1+1

iTunes

мы

OK

1

WEB-DLRip

Джокер

Пифагор

Ведьмак / The Witcher сериал

iTunes

ПШазам

ОК

Оно 2

iTunes

30
pack

Вам бонус

ВАЖНО

!!Акция!!

Alien_RageХит недели

RePack

Resident Evil 21

ИГРА 18+

pack

RePack

jed

RePack

fifa19

RePack

Assassins Creed: Odyssey

RePack

NEED FOR SPEED™ PAYBACK

4 сезон

9 сезон

Бесстыжие 9 сезон

Все сериалы

все сериалы на PB.wtf

RePack

FAR CRY 5
  

Подражатель / The Wannabe (Ник Сэндоу) [2015, триллер, драма, криминал, WEB-DLRip, Любительский (многоголосый)[Paradox & Omskbird records] pb.wtf

Подражатель через торрент pb.wtf

Размер: 1.37 GB | Добавлен: 4 года 1 мес. назад | Торрент скачан:197 раз
Скачать  

19-12-2015 02:09 Подражатель Скачать торрент  

Подражатель / The Wannabe


Год выпуска: 2015
Страна: США
Жанр: триллер, драма, криминал, детектив

Продолжительность: 01:31:14
Перевод: Любительский (многоголосый) [Paradox & Omskbird records]
Режиссер: Ник Сэндоу
В ролях:

Патриция Аркетт (Rose), Майкл Империоли (Alphonse), Дэвид Зайас, Винсент Пьяцца (Thomas), Доменик Ломбардоззи (Mickey), Ник Сэндоу (Anthony), Майк Старр, Даг Э. Даг (The Twin), Нил Хафф, Слэйн, Винченцо Амато (Richie), Адриана ДеМео (Annie)
Описание:
Действие фильма происходит в 1992 году в Нью-Йорке. Мелкий жулик Томас Греко - истинный фанат мафии и классических гангстерских фильмов. Он пытается найти способ, благодаря которому один из его героев, босс мафии Джон Готти, судимый за многочисленные преступления в федеральном суде, может быть оправдан. В эпоху, когда большинство членов банд носят спортивные костюмы, Томас старается выглядеть как парни из старых фильмов. Чем, вероятно, и привлекает внимание Роуз, пожилой женщины, в которой находит единомышленницу.
Мировая премьера: 17 апреля 2015

Качество: WEB-DLRip

Формат: AVI
Видео: XviD, 720x304 (2.35:1), 1753 kbps, 23,976 fps, 0,334 bpp
Аудио: AC3 / 2.0 / 48 kHz / 384 kbps / 16 bit


Код:

General
Complete name                            : C:\POdrOJatel.2O15.WEB-DLRip_OMSKBIRD_PARADOX.avi
Format                                   : AVI
Format/Info                              : Audio Video Interleave
File size                                : 1.37 GiB
Duration                                 : 1h 31mn
Overall bit rate                         : 2 147 Kbps
Writing application                      : VirtualDubMod 1.5.10.2 (build 2540/release)
Writing library                          : VirtualDubMod build 2540/release

Video
ID                                       : 0
Format                                   : MPEG-4 Visual
Format profile                           : Advanced Simple@L5
Format settings, BVOP                    : 2
Format settings, QPel                    : No
Format settings, GMC                     : No warppoints
Format settings, Matrix                  : Default (MPEG)
Codec ID                                 : XVID
Codec ID/Hint                            : XviD
Duration                                 : 1h 31mn
Bit rate                                 : 1 753 Kbps
Width                                    : 720 pixels
Height                                   : 304 pixels
Display aspect ratio                     : 2.35:1
Frame rate                               : 23.976 fps
Color space                              : YUV
Chroma subsampling                       : 4:2:0
Bit depth                                : 8 bits
Scan type                                : Progressive
Compression mode                         : Lossy
Bits/(Pixel*Frame)                       : 0.334
Stream size                              : 1.12 GiB (82%)
Writing library                          : XviD 1.2.1 (UTC 2008-12-04)

Audio
ID                                       : 1
Format                                   : AC-3
Format/Info                              : Audio Coding 3
Mode extension                           : CM (complete main)
Codec ID                                 : 2000
Duration                                 : 1h 31mn
Bit rate mode                            : Constant
Bit rate                                 : 384 Kbps
Channel(s)                               : 2 channels
Channel positions                        : Front: L R
Sampling rate                            : 48.0 KHz
Bit depth                                : 16 bits
Compression mode                         : Lossy
Stream size                              : 251 MiB (18%)
Alignment                                : Split accross interleaves
Interleave, duration                     : 42 ms (1.00 video frame)
Interleave, preload duration             : 500 ms


© Оформление by White Smoke pb.wtf



Скачать Подражатель через торрент http://i6.imageban.ru/out/2015/12/19/dcec0cd5092832ba6dc318ef6649dc28.png Скачать фильм Подражатель через торрент бесплантно в хорошем качестве Описание: Действие фильма происходит в 1992 году в Нью-Йорке. Мелкий жулик Томас Греко - истинный фанат мафии и классических гангстерских ... 7.8 10 4
Торрент: Зарегистрирован [2015-12-19 02:09] · скачан: 197 раз
Статус: T временная
Размер: 1.37 GB
Как cкачать? Как скачать Подражатель через торрент | qTorrent

% Раздел Тема Автор DL S | L
T Фильмы 2015 [DVDrip, WEB-DLRip, HDrip] [ 1.42 GB ] Подражатель / The Wannabe [2015 BDRip Любительский [Paradox & Omskbird records] Twi7ter Скачать
1 | 0
T R.G. Resident & PiratVoice - Фильмы, Видео [ 1.46 GB ] Подражатель / The Wannabe [2015 WEB-DLRip-AVC Любительский [Paradox & Omskbird records] От R.G. Resident White Smoke Скачать
1 | 0
T Фильмы (WEB-DL 720p, 1080p) [ 3.34 GB ] Подражатель / The Wannabe [2015 WEB-DL 1080p Любительский [Paradox & Omskbird records] White Smoke Скачать
1 | 0
T Фильмы 2015 (Звук TS, Cam, VO, DVO) [ 1.36 GB ] Подражатель / The Wannabe [2015 WEB-DLRip DVO] Ворон Скачать
1 | 0
T Фильмы (WEB-DL 720p, 1080p) [ 3.22 GB ] Подражатель / The Wannabe [2015 WEB-DL 1080p DVO] Ворон Скачать
1 | 0
Фильмы без перевода [ 708 MB ] Подражатель / The Wannabe [2015 WEB-DLRip Перевод отсутствует Оригинал] makarevich Скачать
1 | 0

28-11-2019 20:33  

Отключить всю рекламу на сайте

19-12-2015 04:00 Подражатель Скачать торрент  

Фильм как,кто смотрел отпишитесь...pb.wtf



19-12-2015 13:26 Подражатель Скачать торрент  

тупняк невероятныйpb.wtf



    Дорогой пользователь! Огромная просьба, поблагодарите релизера, оцените раздачу и оставьте свои комментарий, если Вы скачали Подражатель через торрент бесплатно! Внесите свою лепту в развитие PiratBit!
    Комментировать посты могут только пользователи прошедшие не сложную регистрацию
    Показать сообщения:    

    Подражатель через торрент
    Скачать бесплатно Подражатель
    Подражатель скачать торрент
    Подражатель смотреть онлайн
    Cкачать фильм Подражатель бесплатно
    Подражатель скачать торрент в хорошем качестве
    Подражатель смотреть онлайн бесплатно в хорошем качестве


    Вы не можете начинать темы
    Вы не можете отвечать на сообщения
    Вы не можете редактировать свои сообщения
    Вы не можете удалять свои сообщения
    Вы не можете голосовать в опросах
    Вы не можете прикреплять файлы к сообщениям
    Вы можете скачивать файлы