2 сезон

iTunes

MVO

1

2 сезон

iTunes

iTunes

1 сезон

RePack

30

Новинка

ВАЖНО

ИГРА 18+

pack

RePack

MK11
pack

Легкие деньги

RePack

jed

RePack

fifa19

RePack

RDR2

RePack

NEED FOR SPEED™ PAYBACK

4 сезон

9 сезон

Бесстыжие 9 сезон

Все сериалы

все сериалы на PB.wtf

RePack

FAR CRY 5

Anonymous, добрый вечер, мы не успеваем собрать деньги на оплату серверов за декабрь и январь, помогите нам пожалуйста в это трудное время. В качестве благодарности мы отключим Вам всю рекламу на сайте (укажите свой ник в строку Ваше имя)!

×
  
Magnet ссылка

Росомаха: Бессмертный / The Wolverine (Джеймс Мэнголд) [2013 г., фантастика, боевик, триллер, приключения, HDRip-AVC, Дубляж Лицензия + Оригинал] от R.G. Resident pb.wtf

Росомаха: Бессмертный через торрент pb.wtf

Размер: 3.51 GB | Добавлен: 5 лет назад | Торрент скачан:382 раза
Скачать  

19-12-2015 08:43 Росомаха: Бессмертный Скачать торрент  

Росомаха: Бессмертный / The WolverineГод выпуска: 2013
Страна: США, Великобритания, Австралия, Япония
Жанр: фантастика, боевик, триллер, приключения
Продолжительность: 02:18:14
Перевод: Дубляж | Лицензия + Оригинал
Субтитры: Русские (полные и форсированные), Английские | UTF-8

Режиссер: Джеймс Мэнголд
Продюссер: Хатч Паркер, Лорен Шулер Доннер, Джозеф М. Карачиоло мл.
Сценарий: Марк Бомбэк, Скотт Фрэнк

Бюджет: $120 000 000
Премьера в мире: 16 июля 2013



В ролях: Хью Джекман, Тао Окамото, Рила Фукусима, Светлана Ходченкова, Уилл Юн Ли, Харукико Яманоути, Хироюки Санада, Брайан Ти, Кен Ямамура, Фамке Янссен, Александр Рахленко, Мария Иващенко, Вероника Саркисова, Светлана Ходченкова, Пётр Иващенко

Описание: Новая глава приключений Росомахи развернётся в Японии, где Логану предстоит выяснить, что острее — когти Росомахи или меч Серебряного Самурая.

Качество: HDRip-AVC | BDRip 1080p
Формат: MKV
Видео кодек: H.264
Аудио кодек: AC3
Видео: 1024x424 (2,40:1), 23,976 fps, AVC (High L.4.1) ~2550 kbps, 0.245 bit/pixel
Аудио#1: 48 kHz, AC3 Dolby Digital, 3/2 (L,C,R,l,r) + LFE ch, ~448 kbps |RUS|
Аудио#2: 48 kHz, AC3 Dolby Digital, 3/2 (L,C,R,l,r) + LFE ch, ~640 kbps |ENG|



Автор рипа: Dean24
| | R.G. Resident
_____________________________________

log

avs [info]: 1024x424p 1:1 @ 2500000/104271 fps (cfr)
x264 [info]: using SAR=1/1
x264 [info]: using cpu capabilities: MMX2 SSE2Fast SSSE3 SSE4.2
x264 [info]: profile High, level 4.1
x264 [info]: frame I:2004 Avg QP:12.61 size: 79543
x264 [info]: frame P:51211 Avg QP:15.79 size: 25974
x264 [info]: frame B:145653 Avg QP:18.54 size: 7915
x264 [info]: consecutive B-frames: 4.6% 5.2% 10.9% 27.7% 17.8% 28.3% 4.1% 1.4%
x264 [info]: mb I I16..4: 5.3% 71.7% 23.0%
x264 [info]: mb P I16..4: 1.3% 13.2% 2.5% P16..4: 32.2% 28.2% 16.4% 0.0% 0.0% skip: 6.1%
x264 [info]: mb B I16..4: 0.1% 1.0% 0.3% B16..8: 34.6% 16.1% 5.0% direct: 6.6% skip:36.3% L0:40.4% L1:42.9% BI:16.7%
x264 [info]: 8x8 transform intra:75.7% inter:51.9%
x264 [info]: direct mvs spatial:98.0% temporal:2.0%
x264 [info]: coded y,uvDC,uvAC intra: 86.1% 85.6% 70.0% inter: 27.7% 23.5% 13.7%
x264 [info]: i16 v,h,dc,p: 35% 17% 10% 38%
x264 [info]: i8 v,h,dc,ddl,ddr,vr,hd,vl,hu: 15% 12% 9% 8% 11% 11% 11% 10% 12%
x264 [info]: i4 v,h,dc,ddl,ddr,vr,hd,vl,hu: 14% 11% 5% 9% 14% 13% 13% 10% 12%
x264 [info]: i8c dc,h,v,p: 44% 23% 18% 15%
x264 [info]: Weighted P-Frames: Y:2.6% UV:1.5%
x264 [info]: ref P L0: 51.3% 10.0% 16.4% 5.6% 4.4% 2.8% 2.5% 1.3% 1.2% 0.9% 0.9% 0.7% 0.7% 0.5% 0.5% 0.4%
x264 [info]: ref B L0: 74.6% 12.5% 4.6% 2.3% 1.5% 1.2% 0.9% 0.6% 0.4% 0.4% 0.3% 0.3% 0.2% 0.2% 0.1%
x264 [info]: ref B L1: 92.9% 7.1%
x264 [info]: kb/s:2548.59
_____________________________________
Общее
Уникальный идентификатор : 241559805817154529118340072027678243237 (0xB5BAB9F14F984D1E98F3AE39CA86F9A5)
Полное имя : D:\Мои документы\Фильмы\Сайт\The.Wolverine.Extended.Cut.HDRip-AVC.mkv
Формат : Matroska
Версия формата : Version 4 / Version 2
Размер файла : 3,51 Гбайт
Продолжительность : 2 ч. 18 м.
Общий поток : 3639 Кбит/сек
Название фильма : The.Wolverine.Extended.Cut.HDRip-AVC.by.Dean24.R.G.Resident
Дата кодирования : UTC 2015-12-19 08:26:17
Программа кодирования : mkvmerge v8.3.0 ('Over the Horizon') 64bit
Библиотека кодирования : libebml v1.3.1 + libmatroska v1.4.2
DURATION : 02:10:16.559000000
NUMBER_OF_FRAMES : 1462
NUMBER_OF_BYTES : 34322
_STATISTICS_WRITING_APP : mkvmerge v8.3.0 ('Over the Horizon') 64bit
_STATISTICS_WRITING_DATE_UTC : 2015-12-19 08:26:17
_STATISTICS_TAGS : BPS DURATION NUMBER_OF_FRAMES NUMBER_OF_BYTES
Attachment : Yes

Видео
Идентификатор : 1
Формат : AVC
Формат/Информация : Advanced Video Codec
Профиль формата : High@L4.1
Параметр CABAC формата : Да
Параметр ReFrames формата : 16 кадров
Идентификатор кодека : V_MPEG4/ISO/AVC
Продолжительность : 2 ч. 18 м.
Битрейт : 2550 Кбит/сек
Ширина : 1024 пикселя
Высота : 424 пикселя
Соотношение сторон : 2,40:1
Режим частоты кадров : Постоянный
Частота кадров : 23,976 кадра/сек
Цветовое пространство : YUV
Субдискретизация насыщенности : 4:2:0
Битовая глубина : 8 бит
Тип развёртки : Прогрессивная
Бит/(Пиксели*Кадры) : 0.245
Размер потока : 2,39 Гбайт (68%)
Библиотека кодирования : x264 core 146 r2538 121396c
Настройки программы : cabac=1 / ref=16 / deblock=1:-2:-2 / analyse=0x3:0x113 / me=umh / subme=10 / psy=1 / psy_rd=1.00:0.00 / mixed_ref=1 / me_range=32 / chroma_me=1 / trellis=2 / 8x8dct=1 / cqm=0 / deadzone=21,11 / fast_pskip=0 / chroma_qp_offset=-2 / threads=6 / lookahead_threads=1 / sliced_threads=0 / nr=0 / decimate=0 / interlaced=0 / bluray_compat=0 / constrained_intra=0 / bframes=7 / b_pyramid=2 / b_adapt=2 / b_bias=0 / direct=3 / weightb=1 / open_gop=0 / weightp=2 / keyint=240 / keyint_min=23 / scenecut=40 / intra_refresh=0 / rc_lookahead=60 / rc=2pass / mbtree=0 / bitrate=2550 / ratetol=1.0 / qcomp=0.60 / qpmin=0 / qpmax=69 / qpstep=4 / cplxblur=20.0 / qblur=0.5 / vbv_maxrate=14000 / vbv_bufsize=14000 / nal_hrd=none / filler=0 / ip_ratio=1.40 / pb_ratio=1.30 / aq=1:0.80
Default : Да
Forced : Нет

Аудио #1
Идентификатор : 2
Формат : AC-3
Формат/Информация : Audio Coding 3
Расширение режима : CM (complete main)
Параметр Endianness формата : Big
Идентификатор кодека : A_AC3
Продолжительность : 2 ч. 18 м.
Вид битрейта : Постоянный
Битрейт : 448 Кбит/сек
Каналы : 6 каналов
Расположение каналов : Front: L C R, Side: L R, LFE
Частота : 48,0 КГц
Битовая глубина : 16 бит
Метод сжатия : С потерями
Размер потока : 443 Мбайт (12%)
Default : Да
Forced : Нет

Аудио #2
Идентификатор : 3
Формат : AC-3
Формат/Информация : Audio Coding 3
Расширение режима : CM (complete main)
Параметр Endianness формата : Big
Идентификатор кодека : A_AC3
Продолжительность : 2 ч. 18 м.
Вид битрейта : Постоянный
Битрейт : 640 Кбит/сек
Каналы : 6 каналов
Расположение каналов : Front: L C R, Side: L R, LFE
Частота : 48,0 КГц
Битовая глубина : 16 бит
Метод сжатия : С потерями
Размер потока : 633 Мбайт (18%)
Заголовок : Eng
Язык : English
Default : Нет
Forced : Нет

Текст #1
Идентификатор : 4
Формат : UTF-8
Идентификатор кодека : S_TEXT/UTF8
Идентификатор кодека/Информация : UTF-8 Plain Text
Заголовок : Rus (Forced)
Язык : Russian
Default : Да
Forced : Нет

Текст #2
Идентификатор : 5
Формат : UTF-8
Идентификатор кодека : S_TEXT/UTF8
Идентификатор кодека/Информация : UTF-8 Plain Text
Заголовок : Rus
Язык : Russian
Default : Нет
Forced : Нет

Текст #3
Идентификатор : 6
Формат : UTF-8
Идентификатор кодека : S_TEXT/UTF8
Идентификатор кодека/Информация : UTF-8 Plain Text
Заголовок : Eng
Язык : English
Default : Нет
Forced : Нет

pb.wtf



Скачать Росомаха: Бессмертный через торрент http://i76.fastpic.ru/big/2015/1219/ce/6491d35af1cd98fd47a283411bc9c1ce.png Скачать фильм Росомаха: Бессмертный через торрент бесплантно в хорошем качестве Описание: Новая глава приключений Росомахи развернётся в Японии, где Логану предстоит выяснить, что острее — когти Росомахи или меч ... 9.5 10 14
Info! Золотая раздача, скачанное не засчитывается.
Торрент: Зарегистрирован [2015-12-19 08:43] · скачан: 382 раз
Статус: √ проверено
Размер: 3.51 GB
Как cкачать? Как скачать Росомаха: Бессмертный через торрент | UTorrent

28-11-2019 20:33  

Отключить всю рекламу на сайте

    Дорогой пользователь! Огромная просьба, поблагодарите релизера, оцените раздачу и оставьте свои комментарий, если Вы скачали Росомаха: Бессмертный через торрент бесплатно! Внесите свою лепту в развитие PiratBit!
    Комментировать посты могут только пользователи прошедшие не сложную регистрацию
    Показать сообщения:    

    Росомаха: Бессмертный через торрент
    Скачать бесплатно Росомаха: Бессмертный
    Росомаха: Бессмертный скачать торрент
    Росомаха: Бессмертный смотреть онлайн
    Cкачать фильм Росомаха: Бессмертный бесплатно
    Росомаха: Бессмертный скачать торрент в хорошем качестве
    Росомаха: Бессмертный смотреть онлайн бесплатно в хорошем качестве


    Вы не можете начинать темы
    Вы не можете отвечать на сообщения
    Вы не можете редактировать свои сообщения
    Вы не можете удалять свои сообщения
    Вы не можете голосовать в опросах
    Вы не можете прикреплять файлы к сообщениям
    Вы можете скачивать файлы