Ссылка на приватное зеркало нашего сайта всего за 1$. Внимание количество ограничено!!!

2 сезон

iTunes

1 сезон

1

iTunes

iTunes

iTunes

1 сезон

RePack

30

ИГРА 18+

pack

ВАЖНО

!!Акция!!

Alien_RageХит недели

RePack

MK11
pack

Забери бонус

RePack

jed

!!Акция!!

Alien_Rage

RePack

fifa19

RePack

Assassins Creed: Odyssey

RePack

NEED FOR SPEED™ PAYBACK

4 сезон

9 сезон

Бесстыжие 9 сезон

Все сериалы

все сериалы на PB.wtf

RePack

FAR CRY 5
  

Фокус / Focus (Гленн Фикарра , Джон Рекуа ) [2015, драма, мелодрама, комедия, BDRip 720p от _denis_100 / NNNB] DUB, AVO + Original Eng, +Sub 2xRus, 3xEng pb.wtf

Фокус через торрент pb.wtf

Раздают: 1 [ 0 KB/s ]
Размер: 5.75 GB | Добавлен: 4 года 10 мес. назад | Торрент скачан:770 раз
Скачать  

19-12-2015 10:20 Фокус Скачать торрент  

Фокус / Focus
«Узнай в чём фокус»


Год выпуска: 2015
Страна: США, Аргентина
Жанр: драма, мелодрама, комедия, криминал
Продолжительность: 01:44:44
Перевод: Дублированный - [Лицензия], Авторский (одноголосый, Андрей Гаврилов)
Субтитры: русские (Forced), русские, английские, английские (SDH), английские (SDH-Colored)
Режиссер: Гленн Фикарра , Джон Рекуа
В ролях: Уилл Смит , Марго Робби , Адриан Мартинес , Джералд МакРэйни , Родриго Санторо , Б.Д. Вонг , Бреннан Браун , Роберт Тейлор , Дотан Бонен , Грифф Ферст , Стефани Онор , Дэвид Стэнфорд
Описание:
История об опытном мошеннике, который влюбляется в девушку, делающую первые шаги на поприще нелегального отъема средств у граждан. Отношения становятся для них проблемой, когда обнаруживается, что романтика мешает их нечестному бизнесу.

R - Лицам до 17 лет обязательно присутствие взрослого
Качество: BDRip 720p
Контейнер (Расширение): MKV
Видео: 1280x720, 5950 Кбит/сек, 23,976 кадр/сек, 0,269 Бит/[Пиксели*Кадры]
Аудио №1: русский / AC3 / 5.1 / 48 kHz / 640 kbps / 16 bit |Дублированный|
Аудио №2: русский / AC3 / 5.1 / 48 kHz / 640 kbps / 16 bit |Авторский, Андрей Гаврилов|
Аудио №3: английский / AC3 / 5.1 / 48 kHz / 640 kbps / 16 bit
Навигация по главам(Чаптеры): естьАвтор рипа: Сообщество:
  • Съёмки фильма проходили в Буэнос-Айресе и Новом Орлеане.
  • Чтобы придумать и поставить оригинальные движения карманников и обучить им Уилла Смита, Марго Робби и других актеров, режиссеры пригласили всемирно известного эксперта Аполло Роббинса (Apollo Robbins), знакомого многим в качестве «Джентльмена-вора».
  • На роль Джесс рассматривались Эмма Стоун, Мишель Уильямс, Джессика Бил, Роуз Бирн, Оливия Манн и Кристен Стюарт, но, в конечном счете, роль досталась Марго Робби.
  • После того как Райан Гослинг покинул проект, главную роль предлагали Брэду Питту, но он отказался, и Бену Аффлеку, который в итоге также покинул проект из-за несогласованности расписаний съемок.
  • Роль Фархада предлагали Арти Лэнгу и Омиду Джалили, но оба актера отказались.
  • Марго Робби отдыхала со своим братом на острове в Хорватии, когда ей позвонили и предложили пройти прослушивание на роль Джесс. Она прибыла в отель к 6 утра. Ее рейс был в тот же день. За 20 минут она собрала все вещи, села на катамаран до главного острова, а затем на автобусе добралась до аэропорта. Прождав 6 часов в аэропорту она, наконец, вылетела во Францию, где ей пришлось прождать еще 6 часов до вылета в Нью-Йорк. Прибыв в Нью-Йорк, она обнаружила, что ее багаж пропал. В итоге она без косметики, в джинсовых шортах и рубашке, все же успела на прослушивание. Уилл Смит на это прослушивание опоздал. Когда он вошел, то сказал, что ехал из Куинса, на что Робби сказала, что она только что прилетела с острова, расположенного в Хорватии, но при этом все равно пришла вовремя. По словам Робби, как ей показалось, в итоге это помогло ей получить роль.
  • Когда Фархад рассказывает Джесс в летнем кафе о том, как без неё плохо Никки, бокал в руке Джесс то исчезает, то появляется.
  • Код:

    Format                                   : Matroska
    Format version                           : Version 2
    File size                                : 5.75 GiB
    Duration                                 : 1h 44mn
    Overall bit rate                         : 7 862 Kbps
    Movie name                               : Focus.(2014).BDRip.720p.[denis100]
    Encoded date                             : UTC 2015-12-19 09:52:15
    Writing application                      : mkvmerge v5.8.0 ('No Sleep / Pillow') built on Sep  2 2012 15:37:04
    Writing library                          : libebml v1.2.3 + libmatroska v1.3.0

    Video
    ID                                       : 1
    Format                                   : AVC
    Format/Info                              : Advanced Video Codec
    Format profile                           : High@L4.1
    Format settings, CABAC                   : Yes
    Format settings, ReFrames                : 9 frames
    Codec ID                                 : V_MPEG4/ISO/AVC
    Duration                                 : 1h 44mn
    Bit rate                                 : 5 950 Kbps
    Width                                    : 1 280 pixels
    Height                                   : 720 pixels
    Display aspect ratio                     : 16:9
    Frame rate                               : 23.976 fps
    Color space                              : YUV
    Chroma subsampling                       : 4:2:0
    Bit depth                                : 8 bits
    Scan type                                : Progressive
    Bits/(Pixel*Frame)                       : 0.269
    Stream size                              : 4.23 GiB (74%)
    Title                                    : Focus.(2014).BDRip.720p.[denis100]
    Writing library                          : x264 core 148 r2638 7599210
    Encoding settings                        : cabac=1 / ref=9 / deblock=1:-3:-3 / analyse=0x3:0x133 / me=umh / subme=11 / psy=1 / psy_rd=1.00:0.10 / mixed_ref=1 / me_range=32 / chroma_me=1 / trellis=2 / 8x8dct=1 / cqm=0 / deadzone=21,11 / fast_pskip=0 / chroma_qp_offset=-3 / threads=6 / lookahead_threads=1 / sliced_threads=0 / nr=0 / decimate=1 / interlaced=0 / bluray_compat=0 / constrained_intra=0 / bframes=9 / b_pyramid=2 / b_adapt=2 / b_bias=0 / direct=3 / weightb=1 / open_gop=0 / weightp=2 / keyint=240 / keyint_min=23 / scenecut=40 / intra_refresh=0 / rc=2pass / mbtree=0 / bitrate=5950 / ratetol=1.0 / qcomp=0.60 / qpmin=0 / qpmax=69 / qpstep=4 / cplxblur=20.0 / qblur=0.5 / ip_ratio=1.40 / pb_ratio=1.30 / aq=1:0.80
    Language                                 : English
    Default                                  : Yes
    Forced                                   : No

    Audio #1
    ID                                       : 2
    Format                                   : AC-3
    Format/Info                              : Audio Coding 3
    Mode extension                           : CM (complete main)
    Codec ID                                 : A_AC3
    Duration                                 : 1h 44mn
    Bit rate mode                            : Constant
    Bit rate                                 : 640 Kbps
    Channel(s)                               : 6 channels
    Channel positions                        : Front: L C R, Side: L R, LFE
    Sampling rate                            : 48.0 KHz
    Bit depth                                : 16 bits
    Compression mode                         : Lossy
    Stream size                              : 479 MiB (8%)
    Title                                    : Дублированный
    Language                                 : Russian
    Default                                  : Yes
    Forced                                   : No

    Audio #2
    ID                                       : 3
    Format                                   : AC-3
    Format/Info                              : Audio Coding 3
    Mode extension                           : CM (complete main)
    Codec ID                                 : A_AC3
    Duration                                 : 1h 44mn
    Bit rate mode                            : Constant
    Bit rate                                 : 640 Kbps
    Channel(s)                               : 6 channels
    Channel positions                        : Front: L C R, Side: L R, LFE
    Sampling rate                            : 48.0 KHz
    Bit depth                                : 16 bits
    Compression mode                         : Lossy
    Stream size                              : 479 MiB (8%)
    Title                                    : Авторский, А.Гаврилов
    Language                                 : Russian
    Default                                  : No
    Forced                                   : No

    Audio #3
    ID                                       : 4
    Format                                   : AC-3
    Format/Info                              : Audio Coding 3
    Mode extension                           : CM (complete main)
    Codec ID                                 : A_AC3
    Duration                                 : 1h 44mn
    Bit rate mode                            : Constant
    Bit rate                                 : 640 Kbps
    Channel(s)                               : 6 channels
    Channel positions                        : Front: L C R, Side: L R, LFE
    Sampling rate                            : 48.0 KHz
    Bit depth                                : 16 bits
    Compression mode                         : Lossy
    Stream size                              : 479 MiB (8%)
    Language                                 : English
    Default                                  : No
    Forced                                   : No

    Text #1
    ID                                       : 5
    Format                                   : UTF-8
    Codec ID                                 : S_TEXT/UTF8
    Codec ID/Info                            : UTF-8 Plain Text
    Title                                    : Forced
    Language                                 : Russian
    Default                                  : Yes
    Forced                                   : No

    Text #2
    ID                                       : 6
    Format                                   : UTF-8
    Codec ID                                 : S_TEXT/UTF8
    Codec ID/Info                            : UTF-8 Plain Text
    Language                                 : Russian
    Default                                  : No
    Forced                                   : No

    Text #3
    ID                                       : 7
    Format                                   : UTF-8
    Codec ID                                 : S_TEXT/UTF8
    Codec ID/Info                            : UTF-8 Plain Text
    Language                                 : English
    Default                                  : No
    Forced                                   : No

    Text #4
    ID                                       : 8
    Format                                   : UTF-8
    Codec ID                                 : S_TEXT/UTF8
    Codec ID/Info                            : UTF-8 Plain Text
    Title                                    : SDH
    Language                                 : English
    Default                                  : No
    Forced                                   : No

    Text #5
    ID                                       : 9
    Format                                   : UTF-8
    Codec ID                                 : S_TEXT/UTF8
    Codec ID/Info                            : UTF-8 Plain Text
    Title                                    : SDH-Colored
    Language                                 : English
    Default                                  : No
    Forced                                   : No

    Menu
    00:00:00.000                             : en:00:00:00.000
    00:09:17.974                             : en:00:09:17.974
    00:18:55.217                             : en:00:18:55.217
    00:30:22.904                             : en:00:30:22.904
    00:40:56.078                             : en:00:40:56.078
    00:49:16.370                             : en:00:49:16.370
    01:00:10.481                             : en:01:00:10.481
    01:11:02.758                             : en:01:11:02.758
    01:20:27.489                             : en:01:20:27.489
    01:28:33.891                             : en:01:28:33.891
    01:39:19.620                             : en:01:39:19.620

    x264 [info]: frame I:1405 Avg QP:14.28 size:173071
    x264 [info]: frame P:36233 Avg QP:16.86 size: 59880
    x264 [info]: frame B:113032 Avg QP:19.04 size: 19929
    x264 [info]: consecutive B-frames: 2.9% 4.5% 6.7% 40.5% 11.4% 21.3% 5.2% 6.9% 0.5% 0.2%
    pb.wtf



    Скачать Фокус через торрент http://i74.fastpic.ru/big/2015/1219/6c/219334c936ddf6ff56a973028f405e6c.png Скачать фильм Фокус через торрент бесплантно в хорошем качестве Описание:История об опытном мошеннике, который влюбляется в девушку, делающую первые шаги на поприще нелегального отъема средств у граждан. ... 8.5 10 13
    Info! Золотая раздача, скачанное не засчитывается.
    Торрент: Зарегистрирован [2015-12-19 10:20] · скачан: 770 раз
    Статус: √ проверено
    Размер: 5.75 GB
    Как cкачать? Как скачать Фокус через торрент | qTorrent



    Последний раз редактировалось: _denis_100 (2015-12-19 20:54), всего редактировалось 5 раз(а)

    28-11-2019 20:33  

    Отключить всю рекламу на сайте

    19-12-2015 14:05 Фокус Скачать торрент  

    Фильм для любителей трилогии про Оушена и его друзей.неплой фильм...pb.wtf



    20-12-2015 18:03 Фокус Скачать торрент  

    экс МО и верный соратник Художница по-американски )pb.wtf



    27-02-2016 11:54 Фокус Скачать торрент  

    Фильм больше мелодрама, я ожидал другого.pb.wtf



    13-09-2020 09:43 Фокус Скачать торрент  

    а мне понравилось кеноpb.wtf



      Дорогой пользователь! Огромная просьба, поблагодарите релизера, оцените раздачу и оставьте свои комментарий, если Вы скачали Фокус через торрент бесплатно! Внесите свою лепту в развитие PiratBit!
      Комментировать посты могут только пользователи прошедшие не сложную регистрацию
      Показать сообщения:    

      Фокус через торрент
      Скачать бесплатно Фокус
      Фокус скачать торрент
      Фокус смотреть онлайн
      Cкачать фильм Фокус бесплатно
      Фокус скачать торрент в хорошем качестве
      Фокус смотреть онлайн бесплатно в хорошем качестве


      Вы не можете начинать темы
      Вы не можете отвечать на сообщения
      Вы не можете редактировать свои сообщения
      Вы не можете удалять свои сообщения
      Вы не можете голосовать в опросах
      Вы не можете прикреплять файлы к сообщениям
      Вы можете скачивать файлы