Ссылка на приватное зеркало всего за 1$. Внимание количество ограничено!!!

iTunes

iTunes

iTunes

1

iTunes

iTunes

iTunes

iTunes

iTunes

30
pack

Новость дня

ВАЖНО

!!Акция!!

Alien_RageХит недели

RePack

Resident Evil 21

ИГРА 18+

pack

RePack

jed

!!Акция!!

Alien_Rage

RePack

fifa19

RePack

Assassins Creed: Odyssey

RePack

NEED FOR SPEED™ PAYBACK

4 сезон

9 сезон

Бесстыжие 9 сезон

Все сериалы

все сериалы на PB.wtf

RePack

FAR CRY 5
  

Переводчик (Алексей Нужный) [2015, криминал, драма, WEB-DLRip-AVC] [iTunes] pb.wtf

Переводчик через торрент pb.wtf

Размер: 1.32 GB | Добавлен: 4 года 5 мес. назад | Торрент скачан:475 раз
Скачать  

19-12-2015 14:45 Переводчик Скачать торрент  

Переводчик
Год выпуска » 2015
Страна » Россия
Жанр » криминал, драма
Продолжительность » 01:09:15
Перевод » Оригинальное [iTunes]
Субтитры » Нет

В ролях
» Леонид Ярмольник, Александр Ильин мл., Мария Андреева, Дмитрий Астрахан, Семен Трескунов, Луиза-Габриэла Бровина, Клара Лаго, Михаил Шамигулов, Станислав Дужников, Елена Плаксина

Режиссёр
» Алексей Нужный
ОПИСАНИЕ:
» Воскресный папа отправляется в командировку вместе со своим двенадцатилетним сыном. Оказавшись свидетелем криминальной разборки, которую затеял главарь местной банды, сын попадает в больницу. Спасти жизнь мальчику может операция за границей. Но она стоит больших денег. Отец решается на отчаянный шаг — он соглашается исполнить три желания главаря банды.
• Качество » WEB-DLRip-AVC
• Формат » MKV
• Видео кодек » AVC
• Аудио кодек » AC3
• Видео » MPEG-4 AVC, 2333 Кбит/с, 1024x432, 25,000 кадра/сек
• Аудио » • Русский (AC3, 6 ch, 384 Кбит/с,48,0 КГц)

• Релиз от: »
Общее
Уникальный идентификатор : 216806513177930234624546008006913879024 (0xA31B6A63E4C665F3B2FAB6EEBC9EEBF0)
Полное имя : E:Раздача-BDRipPerevodchik.2015.WEB-DLRip-AVC_FreeRutor.mkv
Формат : Matroska
Версия формата : Version 2
Размер файла : 1,32 Гбайт
Продолжительность : 1 ч. 9 м.
Общий поток : 2717 Кбит/сек
Название фильма : FreeRutor_by_grab777
Дата кодирования : UTC 2015-12-12 23:36:29
Программа кодирования : mkvmerge v5.8.0 ('No Sleep / Pillow') built on Sep 2 2012 15:37:04
Библиотека кодирования : XviD4PSP 6.0 / 54.29.105

Видео
Идентификатор : 1
Формат : AVC
Формат/Информация : Advanced Video Codec
Профиль формата : High@L4.1
Параметр CABAC формата : Да
Параметр ReFrames формата : 7 кадров
Идентификатор кодека : V_MPEG4/ISO/AVC
Продолжительность : 1 ч. 9 м.
Битрейт : 2333 Кбит/сек
Ширина : 1024 пикселя
Высота : 432 пикселя
Соотношение сторон : 2,40:1
Соотношение сторон в оригинале : 2,40:1
Режим частоты кадров : Постоянный
Частота кадров : 25,000 кадров/сек
Цветовое пространство : YUV
Субдискретизация насыщенности : 4:2:0
Битовая глубина : 8 бит
Тип развёртки : Прогрессивная
Бит/(Пиксели*Кадры) : 0.211
Размер потока : 1,10 Гбайт (84%)
Заголовок : FreeRutor_by_grab777
Библиотека кодирования : x264 core 128 r2216M 198a7ea
Настройки программы : cabac=1 / ref=8 / deblock=1:2:2 / analyse=0x3:0x133 / me=umh / subme=9 / psy=1 / psy_rd=1.00:0.20 / mixed_ref=1 / me_range=24 / chroma_me=1 / trellis=2 / 8x8dct=1 / cqm=0 / deadzone=21,11 / fast_pskip=1 / chroma_qp_offset=-3 / threads=4 / lookahead_threads=1 / sliced_threads=0 / nr=0 / decimate=1 / interlaced=0 / bluray_compat=0 / constrained_intra=0 / bframes=8 / b_pyramid=1 / b_adapt=2 / b_bias=3 / direct=3 / weightb=1 / open_gop=0 / weightp=2 / keyint=250 / keyint_min=25 / scenecut=40 / intra_refresh=0 / rc_lookahead=40 / rc=2pass / mbtree=1 / bitrate=2333 / ratetol=1.0 / qcomp=0.60 / qpmin=10 / qpmax=51 / qpstep=4 / cplxblur=20.0 / qblur=0.5 / ip_ratio=1.40 / aq=1:1.00
Язык : English
Default : Нет
Forced : Нет
_STATISTICS_TAGS : BPS DURATION NUMBER_OF_FRAMES NUMBER_OF_BYTES
DURATION : 01:09:18.680000000
NUMBER_OF_FRAMES : 103967
NUMBER_OF_BYTES : 1332521035
_STATISTICS_WRITING_APP : mkvmerge v8.3.0 ('Over the Horizon') 64bit
_STATISTICS_WRITING_DATE_UTC : 2015-12-12 23:36:29

Аудио
Идентификатор : 2
Формат : AC-3
Формат/Информация : Audio Coding 3
Расширение режима : CM (complete main)
Параметр Endianness формата : Big
Идентификатор кодека : A_AC3
Продолжительность : 1 ч. 9 м.
Вид битрейта : Постоянный
Битрейт : 384 Кбит/сек
Каналы : 6 каналов
Расположение каналов : Front: L C R, Side: L R, LFE
Частота : 48,0 КГц
Битовая глубина : 16 бит
Метод сжатия : С потерями
Задержка видео : 3 с. 0 мс.
Размер потока : 190 Мбайт (14%)
Заголовок : iTunes.
Язык : Russian
Default : Да
Forced : Нет
скриншот   скриншот   скриншот   скриншот  
pb.wtf



Скачать Переводчик через торрент http://pic1.kartinco.top/images/10/eh8s8.jpg Скачать фильм Переводчик через торрент бесплантно в хорошем качестве ОПИСАНИЕ: » Воскресный папа отправляется в командировку вместе со своим двенадцатилетним сыном. Оказавшись свидетелем криминальной ... 9.1 10 14
Info! Золотая раздача, скачанное не засчитывается.
Торрент: Зарегистрирован [2015-12-19 14:45] · скачан: 475 раз
Статус: √ проверено
Размер: 1.32 GB
Как cкачать? Как скачать Переводчик через торрент | qTorrent

% Раздел Тема Автор DL S | L
T Фильмы (мультфильмы) cо спонсором показа (Новинки AVI/MKV) [ 1.36 GB ] Переводчики / Les traducteurs [2019 WEB-DLRip] DUB Леонид Ильич Скачать
33 | 0
T Фильмы 2019-2020 (Звук TS, Cam, VO, DVO) [ 1.44 GB ] Переводчик / Un traductor [2018 WEBRip] [DVO] killermax2013 Скачать
2 | 0
Наши фильмы (HD, WEB-DL 720p, 1080p) [ 2.16 GB ] Переводчик [2015 WEB DL 720p] $-DRON-$ Скачать
1 | 0
Наши фильмы (HD, WEB-DL 720p, 1080p) [ 2.35 GB ] Переводчик [2015 WEB-DL 1080p Оригинал White Smoke Скачать
1 | 0
Наши новые фильмы 2015 [ 1.37 GB ] Переводчик [2015 WEB-DLRip Оригинал White Smoke Скачать
1 | 0
Наши новые фильмы 2015 [ 706 MB ] Переводчик [2015 WEB-DLRip Оригинал ""] coc900 Скачать
1 | 0
Наши сериалы [ 7.78 GB ] Переводчик / Серии: 1-4 из 4 [2014 военный DVD9] R5 voovaz Скачать
1 | 0

28-11-2019 20:33  

Отключить всю рекламу на сайте

    Дорогой пользователь! Огромная просьба, поблагодарите релизера, оцените раздачу и оставьте свои комментарий, если Вы скачали Переводчик через торрент бесплатно! Внесите свою лепту в развитие PiratBit!
    Комментировать посты могут только пользователи прошедшие не сложную регистрацию
    Показать сообщения:    

    Переводчик через торрент
    Скачать бесплатно Переводчик
    Переводчик скачать торрент
    Переводчик смотреть онлайн
    Cкачать фильм Переводчик бесплатно
    Переводчик скачать торрент в хорошем качестве
    Переводчик смотреть онлайн бесплатно в хорошем качестве


    Вы не можете начинать темы
    Вы не можете отвечать на сообщения
    Вы не можете редактировать свои сообщения
    Вы не можете удалять свои сообщения
    Вы не можете голосовать в опросах
    Вы не можете прикреплять файлы к сообщениям
    Вы можете скачивать файлы