Ссылка на приватное зеркало нашего сайта всего за 1$. Внимание количество ограничено!!!

2 сезон

iTunes

1 сезон

1

iTunes

iTunes

iTunes

1 сезон

RePack

30

ИГРА 18+

pack

ВАЖНО

!!Акция!!

Alien_RageХит недели

RePack

MK11
pack

Забери бонус

RePack

jed

!!Акция!!

Alien_Rage

RePack

fifa19

RePack

Assassins Creed: Odyssey

RePack

NEED FOR SPEED™ PAYBACK

4 сезон

9 сезон

Бесстыжие 9 сезон

Все сериалы

все сериалы на PB.wtf

RePack

FAR CRY 5
  

Доктор Стрейнджлав, или Как я научился не волноваться... / Dr. Strangelove or: How I Learned to Stop Worrying... (Стэнли Кубрик) [1964, триллер, комедия, фантастика, BDRip 1080p от еnvy / NNNB] MVO, AVO, pb.wtf

Доктор Стрейнджлав, или Как я научился не волноваться... через торрент pb.wtf

Размер: 7.76 GB | Добавлен: 4 года 10 мес. назад | Торрент скачан:112 раз
Скачать  

19-12-2015 19:19 Доктор Стрейнджлав, или Как я научился не волноваться... Скачать торрент  

Информация о фильме

Русское название: Доктор Стрейнджлав, или Как я научился не волноваться и полюбил атомную бомбу
Оригинальное название: Dr. Strangelove or: How I Learned to Stop Worrying and Love the Bomb
Год выхода: 1964
Жанр: триллер, комедия, фантастика
Режиссер: Стэнли Кубрик
Выпущено: США, Великобритания
Продолжительность: 01:34:46
Перевод: Многоголосый закадровый, Авторский одноголосый
В ролях: Питер Селлерс, Джордж К. Скотт, Стерлинг Хейден, Кинен Уинн, Слим Пикенс, Питер Булл, Джеймс Эрл Джонс, Трейси Рид, Джек Крили, Фрэнк Берри
Сюжет фильма

Одержимый мыслью о том, что коммунисты намереваются украсть у американцев их «бесценные телесные соки», генерал Джек Д. Риппер, командир военно-воздушной базы посылает эскадрилью бомбардировщиков с ядерным оружием бомбить СССР.
Президент США Маффи пытается спасти положение, он собирает своих советников, включая доблестного генерала Тергидсона и прикованного к инвалидной коляске бывшего нацистского ученого доктора Стрейнджлава.


Файл

Качество: BDRip 1080p (исходник Blu-ray Disc Remux)
Контейнер: MKV (расширение файла)
Видео: 1792x1080, 9220 Кбит/сек, 23,976 кадр/сек, AVC, x264, High@L4.1, 5:3, 0.199 Бит/[Пиксели*Кадры]
Аудио 1: AC-3, 384 Кбит/сек, 6 канала(ов), 48,0 КГц - Многоголосый закадровый, R5 / Русский
Аудио 2: AC-3, 192 Кбит/сек, 2 канала(ов), 48,0 КГц - Многоголосый закадровый, ОРТ / Русский
Аудио 3: AC-3, 192 Кбит/сек, 2 канала(ов), 48,0 КГц - Авторский одноголосый закадровый, А.Михалев / Русский
Аудио 4: AC-3, 192 Кбит/сек, 2 канала(ов), 48,0 КГц - Авторский одноголосый закадровый, В.Огородников "Лектор" / Русский
Аудио 5: AC-3, 448 Кбит/сек, 6 канала(ов), 48,0 КГц - Авторский одноголосый закадровый, С.Кузнецов / Русский
Аудио 6: AC-3, 448 Кбит/сек, 6 канала(ов), 48,0 КГц - Авторский одноголосый закадровый, Ю.Живов / Русский
Аудио 7: AC-3, 640 Кбит/сек, 6 канала(ов), 48,0 КГц - Оригинал / Английский
Субтитры: Русские | Полные, Английские | Полные
Форсированные субтитры: Нет
Чаптеры (Главы): Есть









Автор Рипа: Сообщество:


Код:

Format                      : Matroska
Format version              : Version 2
File size                   : 7.76 GiB
Duration                    : 1h 34mn
Overall bit rate            : 11.7 Mbps
Movie name                  : Доктор Стрейнджлав, или Как я научился не волноваться...(1964).BDRip.1080p.[envy]
Encoded date                : UTC 2015-12-17 08:45:55
Writing application         : mkvmerge v5.8.0 ('No Sleep / Pillow') built on Sep  2 2012 15:37:04
Writing library             : libebml v1.2.3 + libmatroska v1.3.0

Video
ID                          : 1
Format                      : AVC
Format/Info                 : Advanced Video Codec
Format profile              : High@L4.1
Format settings, CABAC      : Yes
Format settings, ReFrames   : 4 frames
Codec ID                    : V_MPEG4/ISO/AVC
Duration                    : 1h 34mn
Bit rate                    : 9 220 Kbps
Width                       : 1 792 pixels
Height                      : 1 080 pixels
Display aspect ratio        : 5:3
Frame rate mode             : Constant
Frame rate                  : 23.976 fps
Color space                 : YUV
Chroma subsampling          : 4:2:0
Bit depth                   : 8 bits
Scan type                   : Progressive
Bits/(Pixel*Frame)          : 0.199
Stream size                 : 5.95 GiB (77%)
Title                       : Доктор Стрейнджлав, или Как я научился не волноваться...(1964).BDRip.1080p.[envy]
Writing library             : x264 core 148 r2638 7599210
Encoding settings           : cabac=1 / ref=4 / deblock=1:-3:-3 / analyse=0x3:0x133 / me=umh / subme=11 / psy=1 / psy_rd=1.00:0.00 / mixed_ref=1 / me_range=32 / chroma_me=1 / trellis=2 / 8x8dct=1 / cqm=0 / deadzone=21,11 / fast_pskip=0 / chroma_qp_offset=-2 / threads=12 / lookahead_threads=2 / sliced_threads=0 / nr=0 / decimate=1 / interlaced=0 / bluray_compat=0 / constrained_intra=0 / bframes=7 / b_pyramid=2 / b_adapt=2 / b_bias=0 / direct=3 / weightb=1 / open_gop=0 / weightp=2 / keyint=240 / keyint_min=23 / scenecut=40 / intra_refresh=0 / rc=2pass / mbtree=0 / bitrate=9220 / ratetol=2.0 / qcomp=0.60 / qpmin=0 / qpmax=69 / qpstep=4 / cplxblur=20.0 / qblur=0.5 / ip_ratio=1.40 / pb_ratio=1.30 / aq=2:0.70
Language                    : English
Default                     : Yes
Forced                      : No

Audio #1
ID                          : 2
Format                      : AC-3
Format/Info                 : Audio Coding 3
Mode extension              : CM (complete main)
Format settings, Endianness : Big
Codec ID                    : A_AC3
Duration                    : 1h 34mn
Bit rate mode               : Constant
Bit rate                    : 384 Kbps
Channel(s)                  : 6 channels
Channel positions           : Front: L C R, Side: L R, LFE
Sampling rate               : 48.0 KHz
Compression mode            : Lossy
Stream size                 : 260 MiB (3%)
Title                       : MVO R5
Language                    : Russian
Default                     : Yes
Forced                      : No

Audio #2
ID                          : 3
Format                      : AC-3
Format/Info                 : Audio Coding 3
Mode extension              : CM (complete main)
Format settings, Endianness : Big
Codec ID                    : A_AC3
Duration                    : 1h 34mn
Bit rate mode               : Constant
Bit rate                    : 192 Kbps
Channel(s)                  : 2 channels
Channel positions           : Front: L R
Sampling rate               : 48.0 KHz
Compression mode            : Lossy
Stream size                 : 130 MiB (2%)
Title                       : MVO OPT
Language                    : Russian
Default                     : No
Forced                      : No

Audio #3
ID                          : 4
Format                      : AC-3
Format/Info                 : Audio Coding 3
Mode extension              : CM (complete main)
Format settings, Endianness : Big
Codec ID                    : A_AC3
Duration                    : 1h 34mn
Bit rate mode               : Constant
Bit rate                    : 192 Kbps
Channel(s)                  : 2 channels
Channel positions           : Front: L R
Sampling rate               : 48.0 KHz
Compression mode            : Lossy
Stream size                 : 130 MiB (2%)
Title                       : AVO Mihaljov
Language                    : Russian
Default                     : No
Forced                      : No

Audio #4
ID                          : 5
Format                      : AC-3
Format/Info                 : Audio Coding 3
Mode extension              : CM (complete main)
Format settings, Endianness : Big
Codec ID                    : A_AC3
Duration                    : 1h 34mn
Bit rate mode               : Constant
Bit rate                    : 192 Kbps
Channel(s)                  : 2 channels
Channel positions           : Front: L R
Sampling rate               : 48.0 KHz
Compression mode            : Lossy
Stream size                 : 130 MiB (2%)
Title                       : AVO "Lektor"
Language                    : Russian
Default                     : No
Forced                      : No

Audio #5
ID                          : 6
Format                      : AC-3
Format/Info                 : Audio Coding 3
Mode extension              : CM (complete main)
Format settings, Endianness : Big
Codec ID                    : A_AC3
Duration                    : 1h 34mn
Bit rate mode               : Constant
Bit rate                    : 448 Kbps
Channel(s)                  : 6 channels
Channel positions           : Front: L C R, Side: L R, LFE
Sampling rate               : 48.0 KHz
Compression mode            : Lossy
Stream size                 : 304 MiB (4%)
Title                       : AVO Kuznecov
Language                    : Russian
Default                     : No
Forced                      : No

Audio #6
ID                          : 7
Format                      : AC-3
Format/Info                 : Audio Coding 3
Mode extension              : CM (complete main)
Format settings, Endianness : Big
Codec ID                    : A_AC3
Duration                    : 1h 34mn
Bit rate mode               : Constant
Bit rate                    : 448 Kbps
Channel(s)                  : 6 channels
Channel positions           : Front: L C R, Side: L R, LFE
Sampling rate               : 48.0 KHz
Compression mode            : Lossy
Stream size                 : 304 MiB (4%)
Title                       : AVO Zhivov
Language                    : Russian
Default                     : No
Forced                      : No

Audio #7
ID                          : 8
Format                      : AC-3
Format/Info                 : Audio Coding 3
Mode extension              : CM (complete main)
Format settings, Endianness : Big
Codec ID                    : A_AC3
Duration                    : 1h 34mn
Bit rate mode               : Constant
Bit rate                    : 640 Kbps
Channel(s)                  : 6 channels
Channel positions           : Front: L C R, Side: L R, LFE
Sampling rate               : 48.0 KHz
Compression mode            : Lossy
Stream size                 : 434 MiB (5%)
Title                       : Eng
Language                    : English
Default                     : No
Forced                      : No

Text #1
ID                          : 9
Format                      : UTF-8
Codec ID                    : S_TEXT/UTF8
Codec ID/Info               : UTF-8 Plain Text
Title                       : Rus full
Language                    : Russian
Default                     : No
Forced                      : No

Text #2
ID                          : 10
Format                      : UTF-8
Codec ID                    : S_TEXT/UTF8
Codec ID/Info               : UTF-8 Plain Text
Title                       : Eng full
Language                    : English
Default                     : No
Forced                      : No

Menu
00:00:00.000                : :Chapter 01
00:05:50.683                : :Chapter 02
00:11:40.658                : :Chapter 03
00:16:27.277                : :Chapter 04
00:24:13.493                : :Chapter 05
00:32:01.753                : :Chapter 06
00:36:28.227                : :Chapter 07
00:40:00.356                : :Chapter 08
00:45:34.148                : :Chapter 09
00:53:59.152                : :Chapter 10
01:01:22.595                : :Chapter 11
01:05:27.548                : :Chapter 12
01:13:17.309                : :Chapter 13
01:17:48.830                : :Chapter 14
01:20:37.749                : :Chapter 15
01:27:38.294                : :Chapter 16


pb.wtf



Скачать Доктор Стрейнджлав, или Как я научился не волноваться... через торрент http://www.firepic.org/images/2015-12/19/s83jk64whp9f.png Скачать фильм Доктор Стрейнджлав, или Как я научился не волноваться... через торрент бесплантно в хорошем качестве В ролях: Питер Селлерс, Джордж К. Скотт, Стерлинг Хейден, Кинен Уинн, Слим Пикенс, Питер Булл, Джеймс Эрл Джонс, Трейси Рид, Джек Крили, ... 5.5 10 4
Info! Золотая раздача, скачанное не засчитывается.
Торрент: Зарегистрирован [2015-12-19 19:19] · скачан: 112 раз
Статус: √ проверено
Размер: 7.76 GB
Как cкачать? Как скачать Доктор Стрейнджлав, или Как я научился не волноваться... через торрент | qTorrent

28-11-2019 20:33  

Отключить всю рекламу на сайте

19-12-2015 20:32 Доктор Стрейнджлав, или Как я научился не волноваться... Скачать торрент  

А причем тут атомная бомба? Что за манера переводить в чушь...pb.wtf



19-12-2015 21:00 Доктор Стрейнджлав, или Как я научился не волноваться... Скачать торрент  

mrAmerica писал(а):

А причем тут атомная бомба? Что за манера переводить в чушь...

Если переводить переводчиком от гугл то как раз такой и есть перевод.))pb.wtf



    Дорогой пользователь! Огромная просьба, поблагодарите релизера, оцените раздачу и оставьте свои комментарий, если Вы скачали Доктор Стрейнджлав, или Как я научился не волноваться... через торрент бесплатно! Внесите свою лепту в развитие PiratBit!
    Комментировать посты могут только пользователи прошедшие не сложную регистрацию
    Показать сообщения:    

    Доктор Стрейнджлав, или Как я научился не волноваться... через торрент
    Скачать бесплатно Доктор Стрейнджлав, или Как я научился не волноваться...
    Доктор Стрейнджлав, или Как я научился не волноваться... скачать торрент
    Доктор Стрейнджлав, или Как я научился не волноваться... смотреть онлайн
    Cкачать фильм Доктор Стрейнджлав, или Как я научился не волноваться... бесплатно
    Доктор Стрейнджлав, или Как я научился не волноваться... скачать торрент в хорошем качестве
    Доктор Стрейнджлав, или Как я научился не волноваться... смотреть онлайн бесплатно в хорошем качестве


    Вы не можете начинать темы
    Вы не можете отвечать на сообщения
    Вы не можете редактировать свои сообщения
    Вы не можете удалять свои сообщения
    Вы не можете голосовать в опросах
    Вы не можете прикреплять файлы к сообщениям
    Вы можете скачивать файлы