Ссылка на приватное зеркало всего за 1$. Внимание количество ограничено!!!

iTunes

iTunes

iTunes

1

iTunes

iTunes

iTunes

iTunes

iTunes

30
pack

$ от Little Big

ВАЖНО

!!Акция!!

Alien_RageХит недели

RePack

Resident Evil 21

ИГРА 18+

pack

RePack

jed

!!Акция!!

Alien_Rage

RePack

fifa19

RePack

Assassins Creed: Odyssey

RePack

NEED FOR SPEED™ PAYBACK

4 сезон

9 сезон

Бесстыжие 9 сезон

Все сериалы

все сериалы на PB.wtf

RePack

FAR CRY 5
  

Новейший завет / Le tout nouveau testament (Жако ван Дормель / Jaco van Dormael) [2015, Бельгия, Франция, Люксембург, комедия, WEB-DL 720p, Дубляж] iTunes pb.wtf

Новейший завет через торрент pb.wtf

Размер: 3.5 GB | Добавлен: 4 года 6 мес. назад | Торрент скачан:543 раза
Скачать  

20-12-2015 02:20 Новейший завет Скачать торрент  

Новейший завет / Le tout nouveau testament
«Бог существует! И он живет... в Брюсселе»


  • Год выпуска: 2015
  • Страна: Бельгия, Франция, Люксембург
  • Жанр: комедия
  • Продолжительность: 01:54:30
  • Перевод: Дубляж - [Лицензия / iTunes]

  • Режиссер: Жако ван Дормель / Jaco van Dormael
  • В ролях:

    Бенуа Пульворд (Dieu), Катрин Денёв (Martine), Франсуа Дамиенс (François), Иоланда Моро (La femme de Dieu), Пили Груан (Ea), Лаура Верлинден (Aurélie), Серж Ларивье (Marc), Дидье Де Нек (Jean-Claude), Марко Лоренцини (Victor), Ромен Желен (Willy), Анна Тента (Xenia, l'Allemande), Йохан Хелденберг (Le prêtre)


  • Да, Бог существует. Но он совсем не такой, каким мы его представляли. Он живет в Брюсселе, и у него есть не только сын, но и дочь. Она сбегает из дома и отправляется в наш мир искать приключения и испытывать терпение своего отца на прочность. Надолго ли его хватит?..
  • Рейтинг:



  • Качество: WEB-DL 720p
  • Формат: :MKV
  • Видео кодек: AVC
  • Аудио кодек: AC3
  • Видео: 1280x538 (2.40:1), 3901 kbps, 24 fps, 0,236 bpp
  • Аудио: русский / 5.1 / 48 kHz / 384 kbps / 16 bit |[Лицензия / iTunes]|
  • Релиз от: GEKADOL

    Код:

    General
    Unique ID                                : 246564480640132949827242882761723769462 (0xB97E97764A3C4E7F8CB60EE0C9C87276)
    Complete name                            : G:\H0Beiwiy.3aBet.2015.D.WEB-DL.720p.mkv
    Format                                   : Matroska
    Format version                           : Version 4 / Version 2
    File size                                : 3.50 GiB
    Duration                                 : 1h 54mn
    Overall bit rate                         : 4 373 Kbps
    Encoded date                             : UTC 2015-12-19 19:11:33
    Writing application                      : mkvmerge v8.3.0 ('Over the Horizon') 64bit
    Writing library                          : libebml v1.3.1 + libmatroska v1.4.2
    DURATION                                 : 01:54:30.816000000
    NUMBER_OF_FRAMES                         : 214713
    NUMBER_OF_BYTES                          : 329799168
    _STATISTICS_WRITING_APP                  : mkvmerge v8.3.0 ('Over the Horizon') 64bit
    _STATISTICS_WRITING_DATE_UTC             : 2015-12-19 19:11:33
    _STATISTICS_TAGS                         : BPS DURATION NUMBER_OF_FRAMES NUMBER_OF_BYTES

    Video
    ID                                       : 1
    Format                                   : AVC
    Format/Info                              : Advanced Video Codec
    Format profile                           : Main@L3.1
    Format settings, CABAC                   : No
    Format settings, ReFrames                : 2 frames
    Codec ID                                 : V_MPEG4/ISO/AVC
    Duration                                 : 1h 54mn
    Bit rate                                 : 3 902 Kbps
    Width                                    : 1 280 pixels
    Height                                   : 538 pixels
    Display aspect ratio                     : 2.40:1
    Frame rate                               : 24.000 fps
    Color space                              : YUV
    Chroma subsampling                       : 4:2:0
    Bit depth                                : 8 bits
    Scan type                                : Progressive
    Bits/(Pixel*Frame)                       : 0.236
    Stream size                              : 3.12 GiB (89%)
    Language                                 : English
    Default                                  : Yes
    Forced                                   : No
    Color primaries                          : BT.709-5, BT.1361, IEC 61966-2-4, SMPTE RP177
    Transfer characteristics                 : BT.709-5, BT.1361
    Matrix coefficients                      : BT.709-5, BT.1361, IEC 61966-2-4 709, SMPTE RP177

    Audio
    ID                                       : 2
    Format                                   : AC-3
    Format/Info                              : Audio Coding 3
    Mode extension                           : CM (complete main)
    Codec ID                                 : A_AC3
    Duration                                 : 1h 54mn
    Bit rate mode                            : Constant
    Bit rate                                 : 384 Kbps
    Channel(s)                               : 6 channels
    Channel positions                        : Front: L C R, Side: L R, LFE
    Sampling rate                            : 48.0 KHz
    Bit depth                                : 16 bits
    Compression mode                         : Lossy
    Stream size                              : 315 MiB (9%)
    Language                                 : Russian
    Default                                  : Yes
    Forced                                   : No

    Menu
    00:00:00.000                             : en:Глава 1
    00:06:35.000                             : en:Глава 2
    00:11:39.000                             : en:Глава 3
    00:16:47.000                             : en:Глава 4
    00:22:08.000                             : en:Глава 5
    00:27:13.000                             : en:Глава 6
    00:33:02.000                             : en:Глава 7
    00:40:46.000                             : en:Глава 8
    00:46:26.000                             : en:Глава 9
    00:52:06.000                             : en:Глава 10
    00:58:21.000                             : en:Глава 11
    01:03:58.000                             : en:Глава 12
    01:09:46.000                             : en:Глава 13
    01:14:47.000                             : en:Глава 14
    01:20:23.000                             : en:Глава 15
    01:27:01.000                             : en:Глава 16
    01:32:39.000                             : en:Глава 17
    01:38:00.000                             : en:Глава 18
    01:43:31.000                             : en:Глава 19




    Скриншоты:



    pb.wtf



  • Скачать Новейший завет через торрент http://i76.fastpic.ru/big/2015/1220/d1/883bff9195070389197b43b7f2348dd1.jpg Скачать фильм Новейший завет через торрент бесплантно в хорошем качестве qw.png Да, Бог существует. Но он совсем не такой, каким мы его представляли. Он живет в Брюсселе, и у него есть не только сын, но и дочь. ... 7.2 10 14
    Торрент: Зарегистрирован [2015-12-20 02:20] · скачан: 543 раз
    Статус: √ проверено
    Размер: 3.5 GB
    Как cкачать? Как скачать Новейший завет через торрент | qTorrent

    % Раздел Тема Автор DL S | L
    Фильмы (WEB-DL 720p, 1080p) [ 3.9 GB ] Новейший завет / Le tout nouveau testament [2015 WEB-DL 1080p ] White Smoke Скачать
    1 | 0
    Фильмы 2015 [DVDrip, WEB-DLRip, HDrip] [ 1.87 GB ] Новейший завет / Le tout nouveau testament [2015 BDRip-AVC] Dub - ExKinoRay Enigma2010 Скачать
    1 | 0
    Фильмы 2015 [DVDrip, WEB-DLRip, HDrip] [ 1.46 GB ] Новейший завет / Le tout nouveau testament [2015 Бельгия Люксембург BDRip-AVC от sokol_ok] Dub sokol_ok Скачать
    2 | 0
    Фильмы 2015 [DVDrip, WEB-DLRip, HDrip] [ 2.13 GB ] Новейший завет / Le tout nouveau testament [2015 Бельгия Люксембург BDRip-AVC от sokol_ok] Dub sokol_ok Скачать
    2 | 0
    R.G. Resident & PiratVoice - Фильмы, Видео [ 2.18 GB ] Новейший завет / Le tout nouveau testament [2015 WEB-DLRip-AVC ] schultz Скачать
    1 | 0
    Фильмы 2015 [DVDrip, WEB-DLRip, HDrip] [ 1.46 GB ] Новейший завет / Le tout nouveau testament [2015 Бельгия Люксембург WEB-DLRip ] GEKADOL Скачать
    1 | 0
    Фильмы 2015 [DVDrip, WEB-DLRip, HDrip] [ 710 MB ] Новейший завет / Le tout nouveau testament [2015 WEB-DLRip ""] coc900 Скачать
    1 | 0

    28-11-2019 20:33  

    Отключить всю рекламу на сайте

      Дорогой пользователь! Огромная просьба, поблагодарите релизера, оцените раздачу и оставьте свои комментарий, если Вы скачали Новейший завет через торрент бесплатно! Внесите свою лепту в развитие PiratBit!
      Комментировать посты могут только пользователи прошедшие не сложную регистрацию
      Показать сообщения:    

      Новейший завет через торрент
      Скачать бесплатно Новейший завет
      Новейший завет скачать торрент
      Новейший завет смотреть онлайн
      Cкачать фильм Новейший завет бесплатно
      Новейший завет скачать торрент в хорошем качестве
      Новейший завет смотреть онлайн бесплатно в хорошем качестве


      Вы не можете начинать темы
      Вы не можете отвечать на сообщения
      Вы не можете редактировать свои сообщения
      Вы не можете удалять свои сообщения
      Вы не можете голосовать в опросах
      Вы не можете прикреплять файлы к сообщениям
      Вы можете скачивать файлы