Ссылка на приватное зеркало всего за 1$. Внимание количество ограничено!!!

OK

1+1

iTunes

мы

OK

1

WEB-DLRip

Джокер

Пифагор

Ведьмак / The Witcher сериал

iTunes

ПШазам

ОК

Оно 2

iTunes

30
pack

Вам бонус

ВАЖНО

!!Акция!!

Alien_RageХит недели

RePack

Resident Evil 21

ИГРА 18+

pack

RePack

jed

RePack

fifa19

RePack

Assassins Creed: Odyssey

RePack

NEED FOR SPEED™ PAYBACK

4 сезон

9 сезон

Бесстыжие 9 сезон

Все сериалы

все сериалы на PB.wtf

RePack

FAR CRY 5
  

Новейший завет / Le tout nouveau testament (Жако ван Дормель / Jaco van Dormael) [2015, Бельгия, Франция, Люксембург, комедия, WEB-DLRip, Дубляж] iTunes pb.wtf

Новейший завет через торрент pb.wtf

Размер: 2.05 GB | Добавлен: 4 года 1 мес. назад | Торрент скачан:1602 раза
Скачать  

20-12-2015 02:24 Новейший завет Скачать торрент  

Новейший завет / Le tout nouveau testament
«Бог существует! И он живет... в Брюсселе»


  • Год выпуска: 2015
  • Страна: Бельгия, Франция, Люксембург
  • Жанр: комедия
  • Продолжительность: 01:54:30
  • Перевод: Дубляж - [Лицензия / iTunes]

  • Режиссер: Жако ван Дормель / Jaco van Dormael
  • В ролях:

    Бенуа Пульворд (Dieu), Катрин Денёв (Martine), Франсуа Дамиенс (François), Иоланда Моро (La femme de Dieu), Пили Груан (Ea), Лаура Верлинден (Aurélie), Серж Ларивье (Marc), Дидье Де Нек (Jean-Claude), Марко Лоренцини (Victor), Ромен Желен (Willy), Анна Тента (Xenia, l'Allemande), Йохан Хелденберг (Le prêtre)


  • Да, Бог существует. Но он совсем не такой, каким мы его представляли. Он живет в Брюсселе, и у него есть не только сын, но и дочь. Она сбегает из дома и отправляется в наш мир искать приключения и испытывать терпение своего отца на прочность. Надолго ли его хватит?..
  • Рейтинг:



  • Качество: WEB-DLRip
  • Формат: :AVI
  • Видео кодек: xvid
  • Аудио кодек: AC3
  • Видео: 720x304 (2.35:1), 2168 kbps, 24 fps, 0,413 bpp
  • Аудио: 5.1 / 48 kHz / 384 kbps / 16 bit
  • Релиз от: GEKADOL

    Код:

    General
    Complete name                            : G:\H0Beiwiy.3aBet.2015.WEB-DLRip.avi
    Format                                   : AVI
    Format/Info                              : Audio Video Interleave
    Format profile                           : OpenDML
    File size                                : 2.05 GiB
    Duration                                 : 1h 54mn
    Overall bit rate                         : 2 563 Kbps
    Writing application                      : XviD4PSP 6.0 / 54.29.105

    Video
    ID                                       : 0
    Format                                   : xvid
    Codec ID                                 : xvid
    Duration                                 : 1h 54mn
    Bit rate                                 : 2 168 Kbps
    Width                                    : 720 pixels
    Height                                   : 304 pixels
    Display aspect ratio                     : 2.35:1
    Frame rate                               : 24.000 fps
    Bits/(Pixel*Frame)                       : 0.413
    Stream size                              : 1.73 GiB (85%)

    Audio
    ID                                       : 1
    Format                                   : AC-3
    Format/Info                              : Audio Coding 3
    Mode extension                           : CM (complete main)
    Codec ID                                 : 2000
    Duration                                 : 1h 54mn
    Bit rate mode                            : Constant
    Bit rate                                 : 384 Kbps
    Channel(s)                               : 6 channels
    Channel positions                        : Front: L C R, Side: L R, LFE
    Sampling rate                            : 48.0 KHz
    Bit depth                                : 16 bits
    Compression mode                         : Lossy
    Stream size                              : 315 MiB (15%)
    Alignment                                : Aligned on interleaves
    Interleave, duration                     : 32 ms (0.77 video frame)




    Скриншоты:



    pb.wtf



  • Скачать Новейший завет через торрент http://i73.fastpic.ru/big/2015/1220/88/5bc273f18e88f9c19bd20fa5dacb4a88.jpg Скачать фильм Новейший завет через торрент бесплантно в хорошем качестве qw.png Да, Бог существует. Но он совсем не такой, каким мы его представляли. Он живет в Брюсселе, и у него есть не только сын, но и дочь. ... 8.9 10 54
    Info! Золотая раздача, скачанное не засчитывается.
    Торрент: Зарегистрирован [2015-12-20 02:24] · скачан: 1 602 раз
    Статус: √ проверено
    Размер: 2.05 GB
    Как cкачать? Как скачать Новейший завет через торрент | qTorrent

    % Раздел Тема Автор DL S | L
    Фильмы (WEB-DL 720p, 1080p) [ 3.9 GB ] Новейший завет / Le tout nouveau testament [2015 WEB-DL 1080p ] White Smoke Скачать
    1 | 0
    Фильмы 2015 [DVDrip, WEB-DLRip, HDrip] [ 1.87 GB ] Новейший завет / Le tout nouveau testament [2015 BDRip-AVC] Dub - ExKinoRay Enigma2010 Скачать
    1 | 0
    Фильмы 2015 [DVDrip, WEB-DLRip, HDrip] [ 1.46 GB ] Новейший завет / Le tout nouveau testament [2015 Бельгия Люксембург BDRip-AVC от sokol_ok] Dub sokol_ok Скачать
    2 | 0
    Фильмы 2015 [DVDrip, WEB-DLRip, HDrip] [ 2.13 GB ] Новейший завет / Le tout nouveau testament [2015 Бельгия Люксембург BDRip-AVC от sokol_ok] Dub sokol_ok Скачать
    2 | 0
    R.G. Resident & PiratVoice - Фильмы, Видео [ 2.18 GB ] Новейший завет / Le tout nouveau testament [2015 WEB-DLRip-AVC ] schultz Скачать
    1 | 0
    Фильмы 2015 [DVDrip, WEB-DLRip, HDrip] [ 1.46 GB ] Новейший завет / Le tout nouveau testament [2015 Бельгия Люксембург WEB-DLRip ] GEKADOL Скачать
    1 | 0
    Фильмы 2015 [DVDrip, WEB-DLRip, HDrip] [ 710 MB ] Новейший завет / Le tout nouveau testament [2015 WEB-DLRip ""] coc900 Скачать
    1 | 0

    28-11-2019 20:33  

    Отключить всю рекламу на сайте

    20-12-2015 05:23 Новейший завет Скачать торрент  

    Отличная комедия поржать можно...pb.wtf





    Последний раз редактировалось: bober100 (2015-12-20 19:04), всего редактировалось 1 раз

    20-12-2015 12:09 Новейший завет Скачать торрент  

    Это оказалось не комедия вовсе))Это жесткий драматичный,черно юмористичный психодел! roflpb.wtf



    20-12-2015 13:24 Новейший завет Скачать торрент  

    оригинально. интересно. необычно, особенно образ бога. немного затянуто. хороший фильм.pb.wtf



    20-12-2015 16:21 Новейший завет Скачать торрент  

    чумачечший фильмpb.wtf



    21-12-2015 01:34 Новейший завет Скачать торрент  

    Мой первый камент лет за 5... КИНО СУПЕР... ТЯНЕТ БОЛЬШЕ ЧЕМ НА 7.5
    ЭТО 10\10pb.wtf



    22-12-2015 15:38 Новейший завет Скачать торрент  

    Своеобразный фильм, хотя думаю ничего необычного для франции и "соседей".pb.wtf



      Дорогой пользователь! Огромная просьба, поблагодарите релизера, оцените раздачу и оставьте свои комментарий, если Вы скачали Новейший завет через торрент бесплатно! Внесите свою лепту в развитие PiratBit!
      Комментировать посты могут только пользователи прошедшие не сложную регистрацию
      Показать сообщения:    

      Новейший завет через торрент
      Скачать бесплатно Новейший завет
      Новейший завет скачать торрент
      Новейший завет смотреть онлайн
      Cкачать фильм Новейший завет бесплатно
      Новейший завет скачать торрент в хорошем качестве
      Новейший завет смотреть онлайн бесплатно в хорошем качестве


      Вы не можете начинать темы
      Вы не можете отвечать на сообщения
      Вы не можете редактировать свои сообщения
      Вы не можете удалять свои сообщения
      Вы не можете голосовать в опросах
      Вы не можете прикреплять файлы к сообщениям
      Вы можете скачивать файлы