Ссылка на приватное зеркало нашего сайта всего за 1$. Внимание количество ограничено!!!

2 сезон

iTunes

1 сезон

1

iTunes

iTunes

iTunes

1 сезон

RePack

30

ИГРА 18+

pack

ВАЖНО

!!Акция!!

Alien_RageХит недели

RePack

MK11
pack

Забери бонус

RePack

jed

!!Акция!!

Alien_Rage

RePack

fifa19

RePack

Assassins Creed: Odyssey

RePack

NEED FOR SPEED™ PAYBACK

4 сезон

9 сезон

Бесстыжие 9 сезон

Все сериалы

все сериалы на PB.wtf

RePack

FAR CRY 5
  

Хитмэн: Агент 47 / Hitman: Agent 47 (Александр Бах / Aleksander Bach) [2015, боевик, фантастика, триллер, BDRip 720p от potroks] DUB Лицензия pb.wtf

Хитмэн: Агент 47 через торрент pb.wtf

Размер: 4.34 GB | Добавлен: 4 года 10 мес. назад | Торрент скачан:739 раз
Скачать  

20-12-2015 09:57 Хитмэн: Агент 47 Скачать торрент  

Хитмэн: Агент 47 / Hitman: Agent 47
Год выпуска: 2015
Страна: США, Германия, Индонезия / 20th Century Fox Film Corporation...
Жанр: боевик, фантастика, триллер
Продолжительность: 01:36:16
Перевод: Дубляж [BD CEE]
Субтитры: русские (полные + форс.), украинские (полные + форс.), английские (Full + SDH + SDH-Colored)
Навигация по главам: есть
Режиссер: Александр Бах / Aleksander Bach
В ролях:

Руперт Френд (Agent 47), Ханна Уэр (Katia), Закари Куинто (John Smith), Киран Хайндс (Litvenko), Томас Кречман (Le Clerq), Анджела Бейби (Diana), Дэн Баккедаль (Sanders), Шарлин Бек (Tenement Woman), Михаэль Борнхюттер (Berlin Police Officer #1), Мелисса Бротон (Gardens by the Bay Woman with Baby), Нильс Брункхорст (Syndicate Doctor), Михаэлла Каспар (Hall of Records Clerk)
Описание: История об элитном убийце, созданном при помощи генной инженерии, который объединяется с женщиной, чтобы помочь ей найти отца и раскрыть тайну своего происхождения.

Качество: BDRip 720p
Формат: MKV
Видео кодек: AVC
Аудио кодек: DTS, AC3
Видео: 1280x536 (2.40:1), 4645 kbps, 23,976 fps, 0.282 bit/pixel
Аудио#1: DTS / 5.1 / 48 kHz / 768 kbps / 24 bit | RUS
Аудио#2: AC3 / 5.1 / 48 kHz / 448 kbps / 16 bit | UKR
Аудио#3: AC3 / 5.1 / 48 kHz / 640 kbps / 16 bit | ENG

Релиз группы:
Автор рипа: potroks

Код:

Общее
Уникальный идентификатор : 229714858926236639788302737377809403845 (0xACD178F8E260C2C886F6099E95C00FC5)
Полное имя : Hitmen.Agent.47.2015.TRIPLE.BDRip.720p.-HELLYWOOD.mkv
Формат : Matroska
Версия формата : Version 4 / Version 2
Размер файла : 4,34 Гбайт
Продолжительность : 1 ч. 36 м.
Общий поток : 6458 Кбит/сек
Название фильма : Hitman: Agent 47 (2015) - HELLYWOOD
Дата кодирования : UTC 2010-02-22 21:41:31
Программа кодирования : mkvmerge v5.8.0 ('No Sleep / Pillow') built on Sep 30 2012 10:57:14
Библиотека кодирования : libebml v1.3.0 + libmatroska v1.4.0

Видео
Идентификатор : 1
Формат : AVC
Формат/Информация : Advanced Video Codec
Профиль формата : High@L4.1
Параметр CABAC формата : Да
Параметр ReFrames формата : 9 кадров
Идентификатор кодека : V_MPEG4/ISO/AVC
Продолжительность : 1 ч. 36 м.
Битрейт : 4645 Кбит/сек
Ширина : 1280 пикселей
Высота : 536 пикселей
Соотношение сторон : 2,40:1
Режим частоты кадров : Постоянный
Частота кадров : 23,976 кадра/сек
Цветовое пространство : YUV
Субдискретизация насыщенности : 4:2:0
Битовая глубина : 8 бит
Тип развёртки : Прогрессивная
Бит/(Пиксели*Кадры) : 0.282
Размер потока : 3,01 Гбайт (69%)
Заголовок : potroks
Библиотека кодирования : x264 core 146 r2538 121396c
Настройки программы : cabac=1 / ref=9 / deblock=1:-3:-3 / analyse=0x3:0x113 / me=umh / subme=11 / psy=1 / psy_rd=1.05:0.10 / mixed_ref=1 / me_range=48 / chroma_me=1 / trellis=2 / 8x8dct=1 / cqm=0 / deadzone=21,11 / fast_pskip=0 / chroma_qp_offset=-3 / threads=9 / lookahead_threads=2 / sliced_threads=0 / nr=0 / decimate=0 / interlaced=0 / bluray_compat=0 / constrained_intra=0 / bframes=10 / b_pyramid=2 / b_adapt=2 / b_bias=0 / direct=3 / weightb=1 / open_gop=0 / weightp=2 / keyint=250 / keyint_min=23 / scenecut=40 / intra_refresh=0 / rc_lookahead=60 / rc=2pass / mbtree=0 / bitrate=4645 / ratetol=1.0 / qcomp=0.70 / qpmin=0 / qpmax=69 / qpstep=4 / cplxblur=20.0 / qblur=0.5 / vbv_maxrate=14000 / vbv_bufsize=14000 / nal_hrd=none / filler=0 / ip_ratio=1.40 / pb_ratio=1.30 / aq=1:0.70
Язык : English
Default : Да
Forced : Нет

Аудио #1
Идентификатор : 2
Формат : DTS
Формат/Информация : Digital Theater Systems
Режим : 16
Параметр Endianness формата : Big
Идентификатор кодека : A_DTS
Продолжительность : 1 ч. 36 м.
Вид битрейта : Постоянный
Битрейт : 768 Кбит/сек
Каналы : 6 каналов
Расположение каналов : Front: L C R, Side: L R, LFE
Частота : 48,0 КГц
Битовая глубина : 24 бит
Метод сжатия : С потерями
Размер потока : 529 Мбайт (12%)
Заголовок : Dub | DTS 5.1 @ 768 kbps - Blu-Ray CEE
Язык : Russian
Default : Да
Forced : Нет

Аудио #2
Идентификатор : 3
Формат : AC-3
Формат/Информация : Audio Coding 3
Расширение режима : CM (complete main)
Параметр Endianness формата : Big
Идентификатор кодека : A_AC3
Продолжительность : 1 ч. 36 м.
Вид битрейта : Постоянный
Битрейт : 448 Кбит/сек
Каналы : 6 каналов
Расположение каналов : Front: L C R, Side: L R, LFE
Частота : 48,0 КГц
Метод сжатия : С потерями
Размер потока : 309 Мбайт (7%)
Заголовок : Dub | DD 5.1 @ 448 kbps - Blu-Ray CEE
Язык : Ukrainian
Default : Нет
Forced : Нет

Аудио #3
Идентификатор : 4
Формат : AC-3
Формат/Информация : Audio Coding 3
Расширение режима : CM (complete main)
Параметр Endianness формата : Big
Идентификатор кодека : A_AC3
Продолжительность : 1 ч. 36 м.
Вид битрейта : Постоянный
Битрейт : 640 Кбит/сек
Каналы : 6 каналов
Расположение каналов : Front: L C R, Side: L R, LFE
Частота : 48,0 КГц
Метод сжатия : С потерями
Размер потока : 441 Мбайт (10%)
Заголовок : Original | DD 5.1 @ 640 kbps
Язык : English
Default : Нет
Forced : Нет

Текст #1
Идентификатор : 5
Формат : UTF-8
Идентификатор кодека : S_TEXT/UTF8
Идентификатор кодека/Информация : UTF-8 Plain Text
Заголовок : Forced [potroks]
Язык : Russian
Default : Да
Forced : Нет

Текст #2
Идентификатор : 6
Формат : UTF-8
Идентификатор кодека : S_TEXT/UTF8
Идентификатор кодека/Информация : UTF-8 Plain Text
Заголовок : Blu-Ray
Язык : Russian
Default : Нет
Forced : Нет

Текст #3
Идентификатор : 7
Формат : UTF-8
Идентификатор кодека : S_TEXT/UTF8
Идентификатор кодека/Информация : UTF-8 Plain Text
Заголовок : Forced [potroks]
Язык : Ukrainian
Default : Нет
Forced : Нет

Текст #4
Идентификатор : 8
Формат : UTF-8
Идентификатор кодека : S_TEXT/UTF8
Идентификатор кодека/Информация : UTF-8 Plain Text
Заголовок : Blu-Ray
Язык : Ukrainian
Default : Нет
Forced : Нет

Текст #5
Идентификатор : 9
Формат : UTF-8
Идентификатор кодека : S_TEXT/UTF8
Идентификатор кодека/Информация : UTF-8 Plain Text
Заголовок : Full
Язык : English
Default : Нет
Forced : Нет

Текст #6
Идентификатор : 10
Формат : UTF-8
Идентификатор кодека : S_TEXT/UTF8
Идентификатор кодека/Информация : UTF-8 Plain Text
Заголовок : SDH
Язык : English
Default : Нет
Forced : Нет

Текст #7
Идентификатор : 11
Формат : UTF-8
Идентификатор кодека : S_TEXT/UTF8
Идентификатор кодека/Информация : UTF-8 Plain Text
Заголовок : SDH-Colored
Язык : English
Default : Нет
Forced : Нет

Меню
00:00:00.000 : :(01)00:00:00:000
00:07:11.347 : :(02)00:07:11:347
00:09:02.959 : :(03)00:09:02:959
00:13:11.582 : :(04)00:13:11:582
00:16:21.605 : :(05)00:16:21:605
00:19:22.786 : :(06)00:19:22:786
00:24:43.815 : :(07)00:24:43:815
00:27:19.179 : :(08)00:27:19:179
00:30:18.691 : :(09)00:30:18:691
00:33:03.815 : :(10)00:33:03:815
00:38:18.713 : :(11)00:38:18:713
00:43:11.755 : :(12)00:43:11:755
00:46:53.435 : :(13)00:46:53:435
00:50:39.870 : :(14)00:50:39:870
00:54:02.530 : :(15)00:54:02:530
00:59:50.587 : :(16)00:59:50:587
01:06:01.749 : :(17)01:06:01:749
01:09:06.142 : :(18)01:09:06:142
01:13:23.190 : :(19)01:13:23:190
01:16:55.319 : :(20)01:16:55:319
01:21:15.745 : :(21)01:21:15:745
01:25:20.824 : :(22)01:25:20:824
01:28:06.155 : :(23)01:28:06:155
01:31:17.847 : :(24)01:31:17:847

pb.wtf



Скачать Хитмэн: Агент 47 через торрент http://i67.fastpic.ru/big/2015/1220/bf/ef96d38136e29838b5a2aeb839b013bf.png Скачать фильм Хитмэн: Агент 47 через торрент бесплантно в хорошем качестве Описание: История об элитном убийце, созданном при помощи генной инженерии, который объединяется с женщиной, чтобы помочь ей найти отца и ... 9.3 10 23
Info! Золотая раздача, скачанное не засчитывается.
Торрент: Зарегистрирован [2015-12-20 09:57] · скачан: 739 раз
Статус: √ проверено
Размер: 4.34 GB
Как cкачать? Как скачать Хитмэн: Агент 47 через торрент | qTorrent

% Раздел Тема Автор DL S | L
Ultra HD (UHD: 2K, 4K, 8K) — видео сверхвысокой чёткости [ 34.65 GB ] Хитмэн: Агент 47 / Hitman: Agent 47 [2015 UHD BDRemux 2160p] DUB [] bober100 Скачать
1 | 0
Фильмы 2015 [DVDrip, WEB-DLRip, HDrip] [ 2.17 GB ] Хитмэн: Агент 47 / Hitman: Agent 47 [2015 Германия Индонезия BDRip-AVC от sokol_ok] DUB sokol_ok Скачать
2 | 0
Фильмы 2015 [DVDrip, WEB-DLRip, HDrip] [ 1.46 GB ] Хитмэн: Агент 47 / Hitman: Agent 47 [2015 Германия Индонезия BDRip-AVC от sokol_ok] DUB sokol_ok Скачать
2 | 0
Фильмы 2015 [DVDrip, WEB-DLRip, HDrip] [ 1.46 GB ] Хитмэн: Агент 47 / Hitman: Agent 47 [2015 BDRip-AVC] DUB potroks Скачать
1 | 0
Фильмы 2015 [DVDrip, WEB-DLRip, HDrip] [ 1.46 GB ] Хитмэн: Агент 47 / Hitman: Agent 47 [2015 BDRip] DUB Twi7ter Скачать
1 | 0
Фильмы 2015 [DVDrip, WEB-DLRip, HDrip] [ 2.18 GB ] Хитмэн: Агент 47 / Hitman: Agent 47 [2015 BDRip-AVC] DUB potroks Скачать
1 | 0
Фильмы [HD 720p, 1080p] (Хороший звук DUB, MVO) [ 4.95 GB ] Хитмэн: Агент 47 / Hitman: Agent 47 [2015 BDRip 720p] DUB Ворон Скачать
1 | 0

28-11-2019 20:33  

Отключить всю рекламу на сайте

20-12-2015 12:22 Хитмэн: Агент 47 Скачать торрент  

Не интересное кино, что первый сняли что пересняли, ваще не то, уж лучше бы придумали как по игре, как он это делает свои задания типа этого, умеют же писать вот и пусть пишут)pb.wtf



20-12-2015 19:20 Хитмэн: Агент 47 Скачать торрент  

по мне так это гораздо лучше того что сняли раньше, и даже чем_то близко к игре, вот тока волосы весь фильм на голове 47-го не вписывались, а когда одевал шапочку так прямо из игры чувак.pb.wtf



20-12-2015 20:31 Хитмэн: Агент 47 Скачать торрент  

Хрень полная игра намного лучше.pb.wtf



21-12-2015 16:27 Хитмэн: Агент 47 Скачать торрент  

Простой боевичок. Ожидал от этого хитмана что-то вроде "Сайлент Ассасин",но тут же он просто рембо. pb.wtf



08-02-2016 16:44 Хитмэн: Агент 47 Скачать торрент  

Что-то у режиссеров с Хитманами совсем не ладится. Сначала смазливый Тимоти Олифант, потом ляповый Руперт Френд. С этапа подбора актеров уже какая-то херня начинается. Хотя тут, скорее всего, у каждого будет субъективно.pb.wtf



    Дорогой пользователь! Огромная просьба, поблагодарите релизера, оцените раздачу и оставьте свои комментарий, если Вы скачали Хитмэн: Агент 47 через торрент бесплатно! Внесите свою лепту в развитие PiratBit!
    Комментировать посты могут только пользователи прошедшие не сложную регистрацию
    Показать сообщения:    

    Хитмэн: Агент 47 через торрент
    Скачать бесплатно Хитмэн: Агент 47
    Хитмэн: Агент 47 скачать торрент
    Хитмэн: Агент 47 смотреть онлайн
    Cкачать фильм Хитмэн: Агент 47 бесплатно
    Хитмэн: Агент 47 скачать торрент в хорошем качестве
    Хитмэн: Агент 47 смотреть онлайн бесплатно в хорошем качестве


    Вы не можете начинать темы
    Вы не можете отвечать на сообщения
    Вы не можете редактировать свои сообщения
    Вы не можете удалять свои сообщения
    Вы не можете голосовать в опросах
    Вы не можете прикреплять файлы к сообщениям
    Вы можете скачивать файлы