Всегда рабочее зеркало просто перед .vidak.icu напиши любое слово или цифру, Пример http://7zt.vidak.icu

>

7.4

iTunes

7.4

2 сезон

9.4

1 сезон

1

7.4

2 сезон

7.2

iTunes

6.0

MVO

13

6.1

iTunes

8.3

Пиратка

30

ULTIMATE

pack

9.9

Лицензия

ВАЖНО

ИГРА 18+

pack

7.3

RePack

MK11

7.7

RePack

jed

7.8

RePack

fifa19

8.5

RePack

RDR2

RePack

NEED FOR SPEED™ PAYBACK

1 сезон

9 сезон

Бесстыжие 9 сезон

Все сериалы

все сериалы на PB.wtf

RePack

FAR CRY 5

Anonymous, доброй ночи, мы катастрофически не успеваем собрать деньги на оплату серверов, помогите нам пожалуйста 5,10,15р., для нас важна любая помощь . В качестве благодарности мы отключим Вам всю рекламу на сайте (укажите свой ник в строку Ваше имя)!

×
  
Magnet ссылка

Убийца / Sicario (Дени Вильнёв) [2015, боевик, триллер, драма, BDRip 720p] Авторский одноголосый [Дмитрий Есарев] + Original pb.wtf

Убийца через торрент pb.wtf

Размер: 5.13 GB | Добавлен: 6 лет 1 мес. назад | Торрент скачан:293 раза
Смотреть онлайн Убийца | Скачать    Ребята, помогите собрать деньги на оплату серверов!!!

20-12-2015 14:36 Убийца Скачать торрент  

Убийца / Sicario

Год выпуска: 2015
Страна: США
Жанр: боевик, триллер, драма, криминал, детектив
Продолжительность: 02:01:20
Перевод: Авторский одноголосый [Дмитрий Есарев]
Режиссер: Дени Вильнёв
В ролях: Эмили Блант (Kate Macer), Бенисио Дель Торо (Alejandro), Джош Бролин (Matt Graver), Виктор Гарбер (Dave Jennings), Джон Бернтал (Ted), Дэниэл Калуя (Reggie Wayne), Джеффри Донован (Steve Forsing), Рауль Трухильо (Rafael), Хулио Седильо (Fausto Alarcon), Хэнк Роджерсон (Phil Coopers), Бернардо Галлегос (Manuel Diaz), Максимилиано Эрнандес (Silvio)
Описание:
На американо-мексиканской границе женщина-полицейский сопровождает двух рейнджеров, которые преследуют наркобарона. Она не подозревает, что по ту сторону границы есть тайное место, где не действуют никакие законы и царят насилие и разврат.
Премьера (мир): 19 мая 2015, ...
Премьера (РФ): 26 ноября 2015, «WDSSPR»
Рейтинг:

MPAA: R - Лицам до 17 лет обязательно присутствие взрослого
Качество: BDRip 720p
Формат: MKV
Видео:AVC, 1280x536 (2.40:1), 4516 kbps, 23,976 fps, 0,275 bpp
Аудио №1: русский / AC3 / 6 ch / 48 kHz / 448 kbps / 16 bit без цензуры
Аудио №2: русский / AC3 / 6 ch / 48 kHz / 448 kbps / 16 bit с цензурой
Аудио №3: английский / AC3 / 6 ch / 48 kHz / 640 kbps / 16 bit
Навигация по главам: есть

Внимание, в релизе две дороги с переводом Есарева, первая с ненормативом, вторая без!



Релиз от: скриншот  

General
Unique ID : 237705101440399695432162855831324208312 (0xB2D45657F78166B18F4B4CAFD3CE2CB8)
Complete name : C:\Users\tut\Desktop\Sicario.2015.BDRip.720p.AVO.Esarev.mkv
Format : Matroska
Format version : Version 4 / Version 2
File size : 5.13 GiB
Duration : 2h 1mn
Overall bit rate : 6 049 Kbps
Encoded date : UTC 2015-12-20 06:47:10
Writing application : mkvmerge v8.3.0 ('Over the Horizon') 64bit
Writing library : libebml v1.3.1 + libmatroska v1.4.2

Video
ID : 1
Format : AVC
Format/Info : Advanced Video Codec
Format profile : High@L4.1
Format settings, CABAC : Yes
Format settings, ReFrames : 5 frames
Codec ID : V_MPEG4/ISO/AVC
Duration : 2h 1mn
Bit rate : 4 516 Kbps
Width : 1 280 pixels
Height : 536 pixels
Display aspect ratio : 2.40:1
Frame rate mode : Constant
Frame rate : 23.976 fps
Color space : YUV
Chroma subsampling : 4:2:0
Bit depth : 8 bits
Scan type : Progressive
Bits/(Pixel*Frame) : 0.275
Stream size : 3.82 GiB (75%)
Writing library : x264 core 148 r2638 7599210
Encoding settings : cabac=1 / ref=5 / deblock=1:0:0 / analyse=0x3:0x133 / me=umh / subme=7 / psy=1 / psy_rd=1.00:0.00 / mixed_ref=1 / me_range=16 / chroma_me=1 / trellis=1 / 8x8dct=1 / cqm=0 / deadzone=21,11 / fast_pskip=0 / chroma_qp_offset=-2 / threads=12 / lookahead_threads=2 / sliced_threads=0 / nr=0 / decimate=1 / interlaced=0 / bluray_compat=0 / constrained_intra=0 / bframes=3 / b_pyramid=2 / b_adapt=1 / b_bias=0 / direct=1 / weightb=1 / open_gop=0 / weightp=2 / keyint=250 / keyint_min=23 / scenecut=40 / intra_refresh=0 / rc_lookahead=40 / rc=2pass / mbtree=1 / bitrate=4516 / ratetol=1.0 / qcomp=0.60 / qpmin=0 / qpmax=69 / qpstep=4 / cplxblur=20.0 / qblur=0.5 / ip_ratio=1.40 / aq=1:1.00
Language : English
Default : Yes
Forced : No

Audio #1
ID : 2
Format : AC-3
Format/Info : Audio Coding 3
Mode extension : CM (complete main)
Format settings, Endianness : Big
Codec ID : A_AC3
Duration : 2h 1mn
Bit rate mode : Constant
Bit rate : 448 Kbps
Channel(s) : 6 channels
Channel positions : Front: L C R, Side: L R, LFE
Sampling rate : 48.0 KHz
Frame rate : 31.250 fps (1536 spf)
Compression mode : Lossy
Stream size : 389 MiB (7%)
Title : Д. Есарев (ненорматив)
Language : Russian
Default : Yes
Forced : No

Audio #2
ID : 3
Format : AC-3
Format/Info : Audio Coding 3
Mode extension : CM (complete main)
Format settings, Endianness : Big
Codec ID : A_AC3
Duration : 2h 1mn
Bit rate mode : Constant
Bit rate : 448 Kbps
Channel(s) : 6 channels
Channel positions : Front: L C R, Side: L R, LFE
Sampling rate : 48.0 KHz
Frame rate : 31.250 fps (1536 spf)
Compression mode : Lossy
Stream size : 389 MiB (7%)
Title : Д. Есарев (цензурный)
Language : Russian
Default : No
Forced : No

Audio #3
ID : 4
Format : AC-3
Format/Info : Audio Coding 3
Mode extension : CM (complete main)
Format settings, Endianness : Big
Codec ID : A_AC3
Duration : 2h 1mn
Bit rate mode : Constant
Bit rate : 640 Kbps
Channel(s) : 6 channels
Channel positions : Front: L C R, Side: L R, LFE
Sampling rate : 48.0 KHz
Frame rate : 31.250 fps (1536 spf)
Compression mode : Lossy
Stream size : 555 MiB (11%)
Language : English
Default : No
Forced : No

Menu
00:00:00.000 : en:00:00:00.000
00:07:14.351 : en:00:07:14.351
00:12:55.108 : en:00:12:55.108
00:20:04.370 : en:00:20:04.370
00:25:24.815 : en:00:25:24.815
00:32:11.596 : en:00:32:11.596
00:39:24.821 : en:00:39:24.821
00:46:15.314 : en:00:46:15.314
00:53:24.576 : en:00:53:24.576
01:01:40.322 : en:01:01:40.322
01:10:49.120 : en:01:10:49.120
01:18:02.887 : en:01:18:02.887
01:30:59.371 : en:01:30:59.371
01:36:57.770 : en:01:36:57.770
01:47:42.039 : en:01:47:42.039
01:54:12.804 : en:01:54:12.804[/code]

pb.wtf



Скачать Убийца через торрент http://static1.keep4u.ru/2015/12/20/img54b674062422877ca355250a736939a1.png Скачать, смотреть онлайн Убийца бесплантно в хорошем качестве Описание: На американо-мексиканской границе женщина-полицейский сопровождает двух рейнджеров, которые преследуют наркобарона. Она не ... 9.3 10 13
Info! Золотая раздача, скачанное не засчитывается.
Торрент: Зарегистрирован [2015-12-20 14:36] · скачан: 293 раз
Статус: √ проверено
Размер: 5.13 GB
Как cкачать? Как скачать Убийца через торрент | UTorrent

% Раздел Тема Автор DL S | L
Фильмы с авторской озвучкой [ 11.02 GB ] Убийца / Sicario [2015 BDRip 1080p] Авторский одноголосый [Дмитрий Есарев] + Original _denis_100 Скачать
1 | 0
Фильмы с авторской озвучкой [ 2.18 GB ] Убийца / Sicario [2015 BDRip-AVC] Авторский одноголосый [Дмитрий Есарев] + Original _denis_100 Скачать
1 | 0

28-11-2019 20:33  

Отключить всю рекламу на сайте

20-12-2015 18:04 Убийца Скачать торрент  

Обалденное кино, вообще без компромиссов!!pb.wtf



20-12-2015 18:19 Убийца Скачать торрент  

redio писал(а):

Обалденное кино, вообще без компромиссов!!

Да ни кто и не сомневалсяpb.wtf



27-12-2015 16:14 Убийца Скачать торрент  

redio писал(а):

Обалденное кино, вообще без компромиссов!!

Сто пудовый хитяра!!!pb.wtf



    Дорогой пользователь! Огромная просьба, поблагодарите релизера, оцените раздачу и оставьте свои комментарий, если Вы скачали Убийца через торрент бесплатно!
    Комментировать посты могут только пользователи прошедшие не сложную регистрацию
    Показать сообщения:    

    Убийца через торрент
    Скачать бесплатно Убийца
    Убийца скачать торрент
    Убийца смотреть онлайн
    Cкачать фильм Убийца бесплатно
    Убийца скачать торрент в хорошем качестве
    Убийца смотреть онлайн бесплатно в хорошем качестве


    Вы не можете начинать темы
    Вы не можете отвечать на сообщения
    Вы не можете редактировать свои сообщения
    Вы не можете удалять свои сообщения
    Вы не можете голосовать в опросах
    Вы не можете прикреплять файлы к сообщениям
    Вы можете скачивать файлы