2 сезон

iTunes

1 сезон

1

iTunes

iTunes

iTunes

1 сезон

RePack

30

ИГРА 18+

pack

ВАЖНО

!!Акция!!

Alien_RageХит недели

RePack

MK11
pack

Забери бонус

RePack

jed

!!Акция!!

Alien_Rage

RePack

fifa19

RePack

Assassins Creed: Odyssey

RePack

NEED FOR SPEED™ PAYBACK

4 сезон

9 сезон

Бесстыжие 9 сезон

Все сериалы

все сериалы на PB.wtf

RePack

FAR CRY 5
  

Шоколад / Chocolat (Лассе Халльстрём) [2000, драма, мелодрама, BDRip 1080p by msltel] DUB, DVO, 4 x AVO pb.wtf

Шоколад через торрент pb.wtf

Размер: 21.34 GB | Добавлен: 4 года 10 мес. назад | Торрент скачан:8 раз
Скачать  

21-12-2015 09:24 Шоколад Скачать торрент  

Название: Шоколад
Оригинальное название: Chocolat
Год выпуска: 2000
Страна: Великобритания, США
Жанр: драма, мелодрама
Продолжительность: 02:01:41
Перевод: дублированный, профессиональный двухголосый, авторский

Режиссёр: Лассе Халльстрём

В ролях: Жюльетт Бинош, Альфред Молина, Кэрри-Энн Мосс, Джуди Денч, Антонио Гил-Мартинес, Хелен Кардона, Джонни Депп, Хью О`Конор, Харрисон Прэтт, Гэлан Коннелл, Лена Олин, Элизабет Коммелен, Петер Стормаре, Рон Кук, Орелин Парент Кениг, Виктория Тивисоль, Джон Вуд, Лесли Карон

Описание: Как-то зимним днём в тихом французском городке появляется молодая женщина по имени Виенн. А чуть позже она открывает необычный шоколадный магазин, предлагая посетителям испытать новое удовольствие. И действительно, побывав у неё однажды, люди вновь и вновь поддаются сладкому очарованию. Просто Виенн волшебным образом угадывает чужие желания. И они сбываются! Но только когда в город приезжает Ру, Виенн, наконец, смогла понять свои собственные... Фильм снят по мотивам романа Джоанн Харрис «Шоколад» (Chocolat, 1999).



Качество: BDRip 1080p Сравнение с исходником
Формат: MKV
Видео: MPEG-4 AVC, 15.3 Mбит/с, 1920x1080, 23,976 кадра/с
Аудио 1: русский, AC3, 448 kbps, 6 ch, 48 kHz [дублированный, R5, перевод Павла Санаева]
Аудио 2: русский, DTS, 1509 kbps, 6 ch, 48 kHz [профессиональный двухголосый, Карусель]

Внешние файлы
Аудио: русский, DTS, 1509 kbps, 6 ch, 48 kHz [авторский, Юрий Живов]
Аудио: русский, DTS, 1509 kbps, 6 ch, 48 kHz [авторский, Михаил Иванов]
Аудио: русский, DTS, 1509 kbps, 6 ch, 48 kHz [авторский, Антон Карповский]
Аудио: русский, DTS, 1509 kbps, 6 ch, 48 kHz [авторский, Юрий Сербин]
Аудио: английский, AC3, 1509 kbps, 6 ch, 48 kHz [оригинал]
Субтитры: русские
Субтитры: английские
Общее
Полное имя : D:\Video\Шоколад.2000.BDRip.1080p\Шоколад.2000.AVO.rus.А.Карповский.dts
Формат : DTS
Формат/Информация : Digital Theater Systems
Размер файла : 1,28 Гбайт
Продолжительность : 2 ч. 1 м.
Режим общего битрейта : Постоянный
Общий поток : 1509 Кбит/сек

Аудио
Формат : DTS
Формат/Информация : Digital Theater Systems
Режим : 16
Параметр Endianness формата : Big
Продолжительность : 2 ч. 1 м.
Вид битрейта : Постоянный
Битрейт : 1509 Кбит/сек
Каналы : 6 каналов
Расположение каналов : Front: L C R, Side: L R, LFE
Частота : 48,0 КГц
Битовая глубина : 24 бит
Метод сжатия : С потерями
Размер потока : 1,28 Гбайт

Общее
Полное имя : D:\Video\Шоколад.2000.BDRip.1080p\Шоколад.2000.AVO.rus.М.Иванов.dts
Формат : DTS
Формат/Информация : Digital Theater Systems
Размер файла : 1,28 Гбайт
Продолжительность : 2 ч. 1 м.
Режим общего битрейта : Постоянный
Общий поток : 1509 Кбит/сек

Аудио
Формат : DTS
Формат/Информация : Digital Theater Systems
Режим : 16
Параметр Endianness формата : Big
Продолжительность : 2 ч. 1 м.
Вид битрейта : Постоянный
Битрейт : 1509 Кбит/сек
Каналы : 6 каналов
Расположение каналов : Front: L C R, Side: L R, LFE
Частота : 48,0 КГц
Битовая глубина : 24 бит
Метод сжатия : С потерями
Размер потока : 1,28 Гбайт

Общее
Полное имя : D:\Video\Шоколад.2000.BDRip.1080p\Шоколад.2000.AVO.rus.Ю.Живов.dts
Формат : DTS
Формат/Информация : Digital Theater Systems
Размер файла : 1,28 Гбайт
Продолжительность : 2 ч. 1 м.
Режим общего битрейта : Постоянный
Общий поток : 1509 Кбит/сек

Аудио
Формат : DTS
Формат/Информация : Digital Theater Systems
Режим : 16
Параметр Endianness формата : Big
Продолжительность : 2 ч. 1 м.
Вид битрейта : Постоянный
Битрейт : 1509 Кбит/сек
Каналы : 6 каналов
Расположение каналов : Front: L C R, Side: L R, LFE
Частота : 48,0 КГц
Битовая глубина : 24 бит
Метод сжатия : С потерями
Размер потока : 1,28 Гбайт (100%)

Общее
Полное имя : D:\Video\Шоколад.2000.BDRip.1080p\Шоколад.2000.AVO.rus.Ю.Сербин.dts
Формат : DTS
Формат/Информация : Digital Theater Systems
Размер файла : 1,28 Гбайт
Продолжительность : 2 ч. 1 м.
Режим общего битрейта : Постоянный
Общий поток : 1509 Кбит/сек

Аудио
Формат : DTS
Формат/Информация : Digital Theater Systems
Режим : 16
Параметр Endianness формата : Big
Продолжительность : 2 ч. 1 м.
Вид битрейта : Постоянный
Битрейт : 1509 Кбит/сек
Каналы : 6 каналов
Расположение каналов : Front: L C R, Side: L R, LFE
Частота : 48,0 КГц
Битовая глубина : 24 бит
Метод сжатия : С потерями
Размер потока : 1,28 Гбайт (100%)

Общее
Уникальный идентификатор : 170401715562834718342300772066328396496 (0x80322D397118694C9922DFF8623542D0)
Полное имя : D:\Video\Шоколад.2000.BDRip.1080p\Шоколад.2000.BDRip.1080p.mkv
Формат : Matroska
Версия формата : Version 4 / Version 2
Размер файла : 14,9 Гбайт
Продолжительность : 2 ч. 1 м.
Общий поток : 17,6 Мбит/сек
Дата кодирования : UTC 2015-12-20 03:09:15
Программа кодирования : mkvmerge v8.2.0 ('World of Adventure') 64bit
Библиотека кодирования : libebml v1.3.1 + libmatroska v1.4.2
DURATION : 02:01:41.152000000
NUMBER_OF_FRAMES : 684483
NUMBER_OF_BYTES : 1377180288
_STATISTICS_WRITING_APP : mkvmerge v8.2.0 ('World of Adventure') 64bit
_STATISTICS_WRITING_DATE_UTC : 2015-12-20 03:09:15
_STATISTICS_TAGS : BPS DURATION NUMBER_OF_FRAMES NUMBER_OF_BYTES

Видео
Идентификатор : 1
Формат : AVC
Формат/Информация : Advanced Video Codec
Профиль формата : High@L4.1
Параметр CABAC формата : Да
Параметр ReFrames формата : 4 кадра
Идентификатор кодека : V_MPEG4/ISO/AVC
Продолжительность : 2 ч. 1 м.
Битрейт : 15,3 Мбит/сек
Ширина : 1920 пикселей
Высота : 1080 пикселей
Соотношение сторон : 16:9
Режим частоты кадров : Постоянный
Частота кадров : 23,976 кадра/сек
Цветовое пространство : YUV
Субдискретизация насыщенности : 4:2:0
Битовая глубина : 8 бит
Тип развёртки : Прогрессивная
Бит/(Пиксели*Кадры) : 0.307
Размер потока : 13,0 Гбайт (87%)
Заголовок : BDRip by msltel
Библиотека кодирования : x264 core 146 r2538 121396c
Настройки программы : cabac=1 / ref=4 / deblock=1:-1:-1 / analyse=0x3:0x113 / me=umh / subme=10 / psy=1 / psy_rd=1.00:0.15 / mixed_ref=1 / me_range=32 / chroma_me=1 / trellis=2 / 8x8dct=1 / cqm=0 / deadzone=21,11 / fast_pskip=1 / chroma_qp_offset=-3 / threads=6 / lookahead_threads=1 / sliced_threads=0 / nr=0 / decimate=1 / interlaced=0 / bluray_compat=0 / constrained_intra=0 / bframes=8 / b_pyramid=2 / b_adapt=2 / b_bias=0 / direct=1 / weightb=1 / open_gop=0 / weightp=2 / keyint=230 / keyint_min=23 / scenecut=40 / intra_refresh=0 / rc_lookahead=40 / rc=crf / mbtree=0 / crf=19.0 / qcomp=0.60 / qpmin=0 / qpmax=69 / qpstep=4 / vbv_maxrate=40000 / vbv_bufsize=50000 / crf_max=0.0 / nal_hrd=none / filler=0 / ip_ratio=1.40 / pb_ratio=1.30 / aq=1:1.00
Язык : English
Default : Да
Forced : Нет
DURATION : 02:01:41.127000000
NUMBER_OF_FRAMES : 175052
NUMBER_OF_BYTES : 14235263802
_STATISTICS_WRITING_APP : mkvmerge v8.2.0 ('World of Adventure') 64bit
_STATISTICS_WRITING_DATE_UTC : 2015-12-20 03:09:15
_STATISTICS_TAGS : BPS DURATION NUMBER_OF_FRAMES NUMBER_OF_BYTES

Аудио #1
Идентификатор : 2
Формат : AC-3
Формат/Информация : Audio Coding 3
Расширение режима : CM (complete main)
Параметр Endianness формата : Big
Идентификатор кодека : A_AC3
Продолжительность : 2 ч. 1 м.
Вид битрейта : Постоянный
Битрейт : 448 Кбит/сек
Каналы : 6 каналов
Расположение каналов : Front: L C R, Side: L R, LFE
Частота : 48,0 КГц
Метод сжатия : С потерями
Размер потока : 390 Мбайт (3%)
Заголовок : DUB (R5, перевод Павла Санаева)
Язык : Russian
Default : Да
Forced : Нет

Аудио #2
Идентификатор : 3
Формат : DTS
Формат/Информация : Digital Theater Systems
Режим : 16
Параметр Endianness формата : Big
Идентификатор кодека : A_DTS
Продолжительность : 2 ч. 1 м.
Вид битрейта : Постоянный
Битрейт : 1509 Кбит/сек
Каналы : 6 каналов
Расположение каналов : Front: L C R, Side: L R, LFE
Частота : 48,0 КГц
Битовая глубина : 24 бит
Метод сжатия : С потерями
Размер потока : 1,28 Гбайт (9%)
Заголовок : DVO (Карусель)
Язык : Russian
Default : Нет
Forced : Нет

Общее
Полное имя : D:\Video\Шоколад.2000.BDRip.1080p\Шоколад.2000.eng.srt
Формат : SubRip
Размер файла : 98,4 Кбайт

Текст
Формат : SubRip
Метод сжатия : Без потерь

Общее
Полное имя : D:\Video\Шоколад.2000.BDRip.1080p\Шоколад.2000.Original.eng.dts
Формат : DTS
Формат/Информация : Digital Theater Systems
Размер файла : 1,28 Гбайт
Продолжительность : 2 ч. 1 м.
Режим общего битрейта : Постоянный
Общий поток : 1509 Кбит/сек

Аудио
Формат : DTS
Формат/Информация : Digital Theater Systems
Режим : 16
Параметр Endianness формата : Big
Продолжительность : 2 ч. 1 м.
Вид битрейта : Постоянный
Битрейт : 1509 Кбит/сек
Каналы : 6 каналов
Расположение каналов : Front: L C R, Side: L R, LFE
Частота : 48,0 КГц
Битовая глубина : 24 бит
Метод сжатия : С потерями
Размер потока : 1,28 Гбайт (100%)

Общее
Полное имя : D:\Video\Шоколад.2000.BDRip.1080p\Шоколад.2000.rus.srt
Формат : SubRip
Размер файла : 116 Кбайт

Текст
Формат : SubRip
Метод сжатия : Без потерь
pb.wtf



Скачать Шоколад через торрент http://s017.radikal.ru/i402/1512/29/5b609a2e7d42.png Скачать фильм Шоколад через торрент бесплантно в хорошем качестве Описание: Как-то зимним днём в тихом французском городке появляется молодая женщина по имени Виенн. А чуть позже она открывает необычный ... 10 10 3
Info! Золотая раздача, скачанное не засчитывается.
Торрент: Зарегистрирован [2015-12-21 09:24] · скачан: 8 раз
Статус: √ проверено
Размер: 21.34 GB
Как cкачать? Как скачать Шоколад через торрент | qTorrent

% Раздел Тема Автор DL S | L
Фильмы [HD 720p, 1080p] (Хороший звук DUB, MVO) [ 7.4 GB ] Шоколад / Chocolat [2000 BDRip 720p by msltel] DUB DVO 4 x AVO msltel Скачать
1 | 0
Фильмы до 2000 г. [ 5.08 GB ] Шоколад / Chocolat [2000 BDRip AVC by msltel] DUB DVO 4 x AVO msltel Скачать
1 | 0

28-11-2019 20:33  

Отключить всю рекламу на сайте

    Дорогой пользователь! Огромная просьба, поблагодарите релизера, оцените раздачу и оставьте свои комментарий, если Вы скачали Шоколад через торрент бесплатно! Внесите свою лепту в развитие PiratBit!
    Комментировать посты могут только пользователи прошедшие не сложную регистрацию
    Показать сообщения:    

    Шоколад через торрент
    Скачать бесплатно Шоколад
    Шоколад скачать торрент
    Шоколад смотреть онлайн
    Cкачать фильм Шоколад бесплатно
    Шоколад скачать торрент в хорошем качестве
    Шоколад смотреть онлайн бесплатно в хорошем качестве


    Вы не можете начинать темы
    Вы не можете отвечать на сообщения
    Вы не можете редактировать свои сообщения
    Вы не можете удалять свои сообщения
    Вы не можете голосовать в опросах
    Вы не можете прикреплять файлы к сообщениям
    Вы можете скачивать файлы