Anonymous, добрый вечер, присоединяйтесь к нам в Telegram!, здесь всегда актуальный адрес сайта, оперативная поддержка и многое другое!

>

5.5

iTunes

7.4

iTunes

7.9

iTunes

1

7.7

1 сезон

6.8

iTunes

7.3

1 сезон

13

6.7

1 сезон

8.3

RePack

30

ULTIMATE

pack

9.9

Лицензия

ВАЖНО

ИГРА 18+

pack

7.3

RePack

MK11

7.7

RePack

jed

7.8

RePack

fifa19

8.5

RePack

RDR2

RePack

NEED FOR SPEED™ PAYBACK

4 сезон

9 сезон

Бесстыжие 9 сезон

Все сериалы

все сериалы на PB.wtf

RePack

FAR CRY 5

Anonymous, добрый вечер, мы катастрофически не успеваем собрать деньги на оплату серверов, помогите нам пожалуйста 5,10,15р., для нас важна любая помощь . В качестве благодарности мы отключим Вам всю рекламу на сайте (укажите свой ник в строку Ваше имя)!

×
  
Magnet ссылка

Родина / Чужой среди своих / Homeland / Сезон: 5 / Серии 1-12 из 12 [2015 г., триллер, драма, детектив, WEB-DLRip, Профессиональный многоголосый LostFilm] pb.wtf

Родина через торрент pb.wtf

Размер: 6.02 GB | Добавлен: 5 лет 10 мес. назад | Торрент скачан:250 раз
Смотреть онлайн Родина | Скачать    Ребята, помогите собрать деньги на оплату серверов!!!

21-12-2015 18:12 Родина Скачать торрент  


Родина / Чужой среди своих / Homeland

Год выпуска: 2015
Страна: США
Жанр: триллер, драма, детектив
Продолжительность: 12 х ~ 00:50:17
Перевод: Профессиональный (многоголосый закадровый) LostFilm
Субтитры: Нет
Сезон: 5
Серий: 12
Режиссер: Лесли Линка Глаттер, Майкл Куэста, Дэниэл Эттиэс
Продюссер: Алекс Ганса, Ховард Гордон, Майкл Клик
Сценарий: Алекс Ганса, Ховард Гордон, Гидеон Рафф

Премьера в мире: 2 октября 2011









В ролях: Клэр Дэйнс (Carrie Mathison), Дэмиэн Льюис (Nicholas Brody), Мэнди Пэтинкин (Saul Berenson), Морена Баккарин (Jessica Brody), Дэвид Хэрвуд (David Estes), Руперт Френд (Peter Quinn), Джексон Пэйс (Chris Brody), Морган Сэйлор (Dana Brody), Ф. Мюррэй Абрахам (Dar Adal), Диего Клаттенхофф (Mike Faber), Трэйси Леттс (Andrew Lockhart), Дэвид Марсиано (Virgil)

Описание: В центре сюжета находятся сержант морской пехоты ВМФ США Николас Броуди, вернувшийся домой после восьми лет отсутствия без вести в Ираке, и Кэрри Мэтисон, офицер ЦРУ, которая подозревает его в причастности к подготовке террористической атаки на Америку.

Качество: WEB-DLRip
Формат: AVI
Видео кодек: XviD
Аудио кодек: MP3
Видео: XviD, 720x400, 1152 kbps, 23,976 fps
Аудио: Mp3, 2 ch, 48 kHz, 192 kbps
скриншот  скриншот  скриншот  

General
Format : AVI
Format/Info : Audio Video Interleave
File size : 487 MiB
Duration : 50mn 17s
Overall bit rate mode : Variable
Overall bit rate : 1 353 Kbps
Writing application : Nandub v1.0rc2
Writing library : Nandub build 1853/release
Video #0
ID : 0
Format : MPEG-4 Visual
Format profile : Advanced Simple@L5
Format settings, BVOP : No
Format settings, QPel : No
Format settings, GMC : No warppoints
Format settings, Matrix : Default (H.263)
Codec ID : XVID
Codec ID/Hint : XviD
Duration : 50mn 17s
Bit rate : 1 152 Kbps
Width : 720 pixels
Height : 400 pixels
Display aspect ratio : 16:9
Frame rate : 23.976 fps
Color space : YUV
Chroma subsampling : 4:2:0
Bit depth : 8 bits
Scan type : Progressive
Compression mode : Lossy
Bits/(Pixel*Frame) : 0.167
Stream size : 414 MiB (85%)
Writing library : XviD 1.2.1 (UTC 2008-12-04)
Audio #1
ID : 1
Format : MPEG Audio
Format version : Version 1
Format profile : Layer 3
Mode : Joint stereo
Mode extension : MS Stereo
Codec ID : 55
Codec ID/Hint : MP3
Duration : 50mn 17s
Bit rate mode : Variable
Bit rate : 192 Kbps
Channel(s) : 2 channels
Sampling rate : 48.0 KHz
Compression mode : Lossy
Stream size : 67.5 MiB (14%)
Alignment : Aligned on interleaves
Interleave, duration : 24 ms (0.58 video frame)
Interleave, preload duration : 486 ms
Writing library : LAME3.97b
Encoding settings : -m j -V 4 -q 3 -lowpass 18.6 --abr 192



Добавлена финальная 12 серия 5 сезона (23.12.2015). Просьба перекачать торрент файл.pb.wtf



Скачать Родина через торрент https://pic1.kartinco.top/images/10/aw61c.jpg Скачать, смотреть онлайн Родина бесплантно в хорошем качестве Описание: В центре сюжета находятся сержант морской пехоты ВМФ США Николас Броуди, вернувшийся домой после восьми лет отсутствия без вести ... 8.9 10 14
Info! Золотая раздача, скачанное не засчитывается.
Торрент: Зарегистрирован [2015-12-22 20:53] · скачан: 250 раз
Статус: √ проверено
Размер: 6.02 GB
Как cкачать? Как скачать Родина через торрент | UTorrent

% Раздел Тема Автор DL S | L
Родина / Чужой среди своих / Homeland [ 26.53 GB ] Родина / Чужой среди своих / Homeland / Сезон: 5 / Серии 1-12 из 12 [2015 WEB-DLRip 1080p] MVO LostFilm MicroCharmelle Скачать
1 | 0


Последний раз редактировалось: MicroCharmelle (2015-12-22 20:55), всего редактировалось 3 раз(а)

28-11-2019 20:33  

Отключить всю рекламу на сайте

    Дорогой пользователь! Огромная просьба, поблагодарите релизера, оцените раздачу и оставьте свои комментарий, если Вы скачали Родина через торрент бесплатно!
    Комментировать посты могут только пользователи прошедшие не сложную регистрацию
    Показать сообщения:    

    Родина через торрент
    Скачать бесплатно Родина
    Родина скачать торрент
    Родина смотреть онлайн
    Cкачать фильм Родина бесплатно
    Родина скачать торрент в хорошем качестве
    Родина смотреть онлайн бесплатно в хорошем качестве


    Вы не можете начинать темы
    Вы не можете отвечать на сообщения
    Вы не можете редактировать свои сообщения
    Вы не можете удалять свои сообщения
    Вы не можете голосовать в опросах
    Вы не можете прикреплять файлы к сообщениям
    Вы можете скачивать файлы