Ссылка на приватное зеркало нашего сайта всего за 1$. Внимание количество ограничено!!!

2 сезон

iTunes

1 сезон

1

iTunes

iTunes

iTunes

1 сезон

RePack

30

ИГРА 18+

pack

ВАЖНО

!!Акция!!

Alien_RageХит недели

RePack

MK11
pack

Забери бонус

RePack

jed

!!Акция!!

Alien_Rage

RePack

fifa19

RePack

Assassins Creed: Odyssey

RePack

NEED FOR SPEED™ PAYBACK

4 сезон

9 сезон

Бесстыжие 9 сезон

Все сериалы

все сериалы на PB.wtf

RePack

FAR CRY 5
  

Виолетта из Атамановки / Серии: 1-4 из 4 (Леонид Мазор) [2013, Мелодрама, HDTV 1080i] pb.wtf

Виолетта из Атамановки через торрент pb.wtf

Размер: 10.66 GB | Добавлен: 4 года 10 мес. назад | Торрент скачан:33 раза
Скачать  

21-12-2015 22:05 Виолетта из Атамановки Скачать торрент  

Виолетта из Атамановки
Год выпуска: 2013
Производство: Россия, Марс Медиа
Жанр: Мелодрама
Продолжительность: 4х~00:48:00
Субтитры: Нет
Режиссер: Леонид Мазор
В ролях: Евгения Дмитриева, Андрей Кузичёв, Михаил Горевой, Сергей Шнырёв, Татьяна Рудина, Ирина Бякова, Татьяна Шитова, Валерий Афанасьев, Диана Енакаева, Сергей Гузеев, Валерия Федорович
Описание: Виолетта из маленького поселка Атамановка живет в мечтах о личном счастье, а его все нет. Но однажды в небе над Атамановкой появляется комета. Виолетте предсказывают: только сила ее любви сможет спасти мир от неминуемой катастрофы. И хотя претендентов составить ее личное счастье сразу же становится хоть отбавляй, она все никак не может определиться с выбором.
Релиз: Rip by Nikolspup от MediaClub

Семпл
Качество: HDTV 1080i
Формат: TS
Видео кодек: AVC
Аудио кодек: MP2
Видео: MPEG-4 AVC, ~ 8000 Кбит/с, 1920x1080, 25 кадр/с, 0.142 Бит/(Пиксели*Кадры)
Аудио: MP2, 2 ch, 256 Кбит/с, 48,0 КГц
Общее
Идентификатор : 1 (0x1)
Полное имя : F:\Фильмы торренты\Violeta.iz.Atamanovki.2013.HDTV.(1080i).MediaClub\Violeta.iz.Atamanovki.(01.seriya.iz.04).2013.HDTV.(1080i).MediaClub.ts
Формат : MPEG-TS
Размер файла : 2,70 Гбайт
Продолжительность : 48 м.
Режим общего битрейта : Переменный
Общий поток : 7990 Кбит/сек

Видео
Идентификатор : 67 (0x43)
Идентификатор меню : 1 (0x1)
Формат : AVC
Формат/Информация : Advanced Video Codec
Профиль формата : High@L4.0
Параметр CABAC формата : Да
Параметр ReFrames формата : 3 кадра
Идентификатор кодека : 27
Продолжительность : 48 м.
Битрейт : 7337 Кбит/сек
Ширина : 1920 пикселей
Высота : 1080 пикселей
Соотношение сторон : 16:9
Частота кадров : 25,000 кадров/сек
Стандарт вещания : Component
Цветовое пространство : YUV
Субдискретизация насыщенности : 4:2:0
Битовая глубина : 8 бит
Тип развёртки : Чересстрочная
Порядок развёртки : Верхнее поле первое
Бит/(Пиксели*Кадры) : 0.142
Размер потока : 2,48 Гбайт (92%)
Основные цвета : BT.709
Характеристики трансфера : BT.709
Коэффициенты матрицы : BT.709

Аудио
Идентификатор : 68 (0x44)
Идентификатор меню : 1 (0x1)
Формат : MPEG Audio
Версия формата : Version 1
Профиль формата : Layer 2
Идентификатор кодека : 3
Продолжительность : 48 м.
Вид битрейта : Постоянный
Битрейт : 256 Кбит/сек
Каналы : 2 канала
Частота : 48,0 КГц
Метод сжатия : С потерями
Размер потока : 88,6 Мбайт (3%)
Язык : English
pb.wtf



Скачать Виолетта из Атамановки через торрент http://s017.radikal.ru/i412/1512/c4/d3967ed99757.jpg Скачать фильм Виолетта из Атамановки через торрент бесплантно в хорошем качестве Описание: Виолетта из маленького поселка Атамановка живет в мечтах о личном счастье, а его все нет. Но однажды в небе над Атамановкой ... 10 10 4
Торрент: Зарегистрирован [2015-12-21 22:05] · скачан: 33 раз
Статус: √ проверено
Размер: 10.66 GB
Как cкачать? Как скачать Виолетта из Атамановки через торрент | qTorrent

28-11-2019 20:33  

Отключить всю рекламу на сайте

03-02-2016 19:16 Виолетта из Атамановки Скачать торрент  

а в то время доярки из Хацапетовки не было ёщё? :-) или была?))pb.wtf



    Дорогой пользователь! Огромная просьба, поблагодарите релизера, оцените раздачу и оставьте свои комментарий, если Вы скачали Виолетта из Атамановки через торрент бесплатно! Внесите свою лепту в развитие PiratBit!
    Комментировать посты могут только пользователи прошедшие не сложную регистрацию
    Показать сообщения:    

    Виолетта из Атамановки через торрент
    Скачать бесплатно Виолетта из Атамановки
    Виолетта из Атамановки скачать торрент
    Виолетта из Атамановки смотреть онлайн
    Cкачать фильм Виолетта из Атамановки бесплатно
    Виолетта из Атамановки скачать торрент в хорошем качестве
    Виолетта из Атамановки смотреть онлайн бесплатно в хорошем качестве


    Вы не можете начинать темы
    Вы не можете отвечать на сообщения
    Вы не можете редактировать свои сообщения
    Вы не можете удалять свои сообщения
    Вы не можете голосовать в опросах
    Вы не можете прикреплять файлы к сообщениям
    Вы можете скачивать файлы