Доктор Стрэндж

Лицензия

Добыча

MVO

Дом дракона

1 сезон

Тор

Лицензия

Мэверик

Лицензия

Там, где раки поют

MVO

Властелин колец

1 сезон

Ultimate

pack

Рекомендуем

30

Repack

ВАЖНО

ВАЖНО

Ghostwire

RePack

jed

RePack

nioh2

RePack

RDR2

RePack

NEED FOR SPEED™ PAYBACK

RePack

скачать торрент

Кинопоиск HD

Острые козырьки 6 сезон

6 сезон

FAR CRY 6

RePack

скачать торрент

Лицензия

скачать торрент

MVO

1

1 сезон

скачать торрент

1 сезон

скачать торрент

Лицензия

  

15 минут славы / 15 Minutes (Джон Херцфелд) [2001, боевик, триллер, драма, криминал, BDRip 1080p by msltel] DUB, 2 x MVO, DVO

15 минут славы через торрент pb.wtf

Размер: 10.77 GB | Добавлен: 6 лет 9 мес. назад | Торрент скачан:55 раз
Смотреть онлайн 15 минут славы | Скачать   

22-12-2015 08:10 15 минут славы Скачать торрент  

Название: 15 минут славы
Оригинальное название: 15 Minutes
Год выпуска: 2001
Страна: США, Германия
Жанр: боевик, триллер, драма, криминал
Продолжительность: 02:00:43
Перевод: дублированный, профессиональный многоголосый, профессиональный двухголосый

Режиссёр: Джон Херцфелд

В ролях: Роберт Де Ниро, Эдвард Бёрнс, Келси Грэммер, Эйвери Брукс, Мелина Канакаредес, Карел Роден, Олег Тактаров, Вера Фармига, Джон ДиРеста, Джеймс Хэнди, Дариус МакКрэри, Брюс Катлер, Шарлиз Терон, Ким Кэтролл, Дэвид Алан Грайр, Владимир Машков, Ирина Гасанова, Ноэль Эванс, Мелинда Марин, Кристина Клейборн, Пол Херман, Гэбриел Коссес, Джо Лиси, Стивен Дэвис, Уильям Стэнтон, Луис Ф. Гарсиа, Майк Камелло, Тай Рунян, Барри Блайн, Ричи Костер, Розанна, Бобби Филд, Антон Ельчин, Себастьян Роше

Описание: Эмиль и Олег, приехав в Нью-Йорк по своим бандитским делам, воруют видеокамеру и начинают снимать свои криминальные похождения. Очень скоро они переходят от незначительных преступлений к поражающим своей жестокостью убийствам. Желая продемонстрировать свои «подвиги» наибольшему количеству зрителей, они продают видеозаписи на телевидение. Передача моментально становится самой высокорейтинговой, а наши герои - новыми звёздами экрана. Но полицейские тоже смотрят телевизор, и тоже не прочь прославиться на всю Америку, пристрелив убийц в прямом эфире…



Качество: BDRip 1080p Сравнение с исходником
Формат: MKV
Видео: MPEG-4 AVC, 9796 Кбит/с, 1920х816, 23,976 кадра/с
Аудио 1: русский, AC3, 192 kbps, 2 ch, 48 kHz [дублированный, Мосфильм]
Аудио 2: русский, AC3, 384 kbps, 6 ch, 48 kHz [профессиональный многоголосый]
Аудио 3: русский, AC3, 192 kbps, 2 ch, 48 kHz [профессиональный многоголосый, R5]
Аудио 4: русский, AC3, 448 kbps, 6 ch, 48 kHz [профессиональный двухголосый]
Аудио 5: английский, DTS, 1509 kbps, 6 ch, 48 kHz [оригинал]
Субтитры: английские
Общее
Уникальный идентификатор : 225787386781025932947007294975045505544 (0xA9DD11A52D546A2BBB140EB772A79208)
Полное имя : D:\Video\15 минут славы.2001.BDRip.1080p.mkv
Формат : Matroska
Версия формата : Version 4 / Version 2
Размер файла : 10,8 Гбайт
Продолжительность : 2 ч. 0 м.
Общий поток : 12,8 Мбит/сек
Дата кодирования : UTC 2015-12-22 06:07:36
Программа кодирования : mkvmerge v8.2.0 ('World of Adventure') 64bit
Библиотека кодирования : libebml v1.3.1 + libmatroska v1.4.2
DURATION : 02:00:43.243000000
NUMBER_OF_FRAMES : 679054
NUMBER_OF_BYTES : 1366256716
_STATISTICS_WRITING_APP : mkvmerge v8.2.0 ('World of Adventure') 64bit
_STATISTICS_WRITING_DATE_UTC : 2015-12-22 06:07:36
_STATISTICS_TAGS : BPS DURATION NUMBER_OF_FRAMES NUMBER_OF_BYTES

Видео
Идентификатор : 1
Формат : AVC
Формат/Информация : Advanced Video Codec
Профиль формата : [email protected]
Параметр CABAC формата : Да
Параметр ReFrames формата : 4 кадра
Идентификатор кодека : V_MPEG4/ISO/AVC
Продолжительность : 2 ч. 0 м.
Битрейт : 9796 Кбит/сек
Ширина : 1920 пикселей
Высота : 816 пикселей
Соотношение сторон : 2,35:1
Режим частоты кадров : Постоянный
Частота кадров : 23,976 кадра/сек
Цветовое пространство : YUV
Субдискретизация насыщенности : 4:2:0
Битовая глубина : 8 бит
Тип развёртки : Прогрессивная
Бит/(Пиксели*Кадры) : 0.261
Размер потока : 8,26 Гбайт (77%)
Библиотека кодирования : x264 core 146 r2538 121396c
Настройки программы : cabac=1 / ref=4 / deblock=1:-2:-2 / analyse=0x3:0x113 / me=umh / subme=10 / psy=1 / psy_rd=1.00:0.15 / mixed_ref=1 / me_range=32 / chroma_me=1 / trellis=2 / 8x8dct=1 / cqm=0 / deadzone=21,11 / fast_pskip=1 / chroma_qp_offset=-3 / threads=6 / lookahead_threads=1 / sliced_threads=0 / nr=0 / decimate=1 / interlaced=0 / bluray_compat=0 / constrained_intra=0 / bframes=9 / b_pyramid=2 / b_adapt=2 / b_bias=0 / direct=1 / weightb=1 / open_gop=0 / weightp=2 / keyint=230 / keyint_min=23 / scenecut=40 / intra_refresh=0 / rc_lookahead=40 / rc=crf / mbtree=0 / crf=19.5 / qcomp=0.60 / qpmin=0 / qpmax=69 / qpstep=4 / vbv_maxrate=40000 / vbv_bufsize=50000 / crf_max=0.0 / nal_hrd=none / filler=0 / ip_ratio=1.40 / pb_ratio=1.30 / aq=1:1.00
Язык : English
Default : Да
Forced : Нет
DURATION : 02:00:41.693000000
NUMBER_OF_FRAMES : 173627
NUMBER_OF_BYTES : 9095974559
_STATISTICS_WRITING_APP : mkvmerge v8.2.0 ('World of Adventure') 64bit
_STATISTICS_WRITING_DATE_UTC : 2015-12-22 06:07:36
_STATISTICS_TAGS : BPS DURATION NUMBER_OF_FRAMES NUMBER_OF_BYTES

Аудио #1
Идентификатор : 2
Формат : AC-3
Формат/Информация : Audio Coding 3
Расширение режима : CM (complete main)
Параметр Endianness формата : Big
Идентификатор кодека : A_AC3
Продолжительность : 2 ч. 0 м.
Вид битрейта : Постоянный
Битрейт : 192 Кбит/сек
Каналы : 2 канала
Расположение каналов : Front: L R
Частота : 48,0 КГц
Метод сжатия : С потерями
Размер потока : 166 Мбайт (2%)
Заголовок : DUB (Мосфильм)
Язык : Russian
Default : Да
Forced : Нет

Аудио #2
Идентификатор : 3
Формат : AC-3
Формат/Информация : Audio Coding 3
Расширение режима : CM (complete main)
Параметр Endianness формата : Big
Идентификатор кодека : A_AC3
Продолжительность : 2 ч. 0 м.
Вид битрейта : Постоянный
Битрейт : 384 Кбит/сек
Каналы : 6 каналов
Расположение каналов : Front: L C R, Side: L R, LFE
Частота : 48,0 КГц
Метод сжатия : С потерями
Размер потока : 332 Мбайт (3%)
Заголовок : MVO
Язык : Russian
Default : Нет
Forced : Нет

Аудио #3
Идентификатор : 4
Формат : AC-3
Формат/Информация : Audio Coding 3
Расширение режима : CM (complete main)
Параметр Endianness формата : Big
Идентификатор кодека : A_AC3
Продолжительность : 2 ч. 0 м.
Вид битрейта : Постоянный
Битрейт : 192 Кбит/сек
Каналы : 2 канала
Расположение каналов : Front: L R
Частота : 48,0 КГц
Метод сжатия : С потерями
Размер потока : 166 Мбайт (2%)
Заголовок : MVO (R5)
Язык : Russian
Default : Нет
Forced : Нет

Аудио #4
Идентификатор : 5
Формат : AC-3
Формат/Информация : Audio Coding 3
Расширение режима : CM (complete main)
Параметр Endianness формата : Big
Идентификатор кодека : A_AC3
Продолжительность : 2 ч. 0 м.
Вид битрейта : Постоянный
Битрейт : 448 Кбит/сек
Каналы : 6 каналов
Расположение каналов : Front: L C R, Side: L R, LFE
Частота : 48,0 КГц
Метод сжатия : С потерями
Размер потока : 387 Мбайт (4%)
Заголовок : DVO
Язык : Russian
Default : Нет
Forced : Нет

Аудио #5
Идентификатор : 6
Формат : DTS
Формат/Информация : Digital Theater Systems
Режим : 16
Параметр Endianness формата : Big
Идентификатор кодека : A_DTS
Продолжительность : 2 ч. 0 м.
Вид битрейта : Постоянный
Битрейт : 1509 Кбит/сек
Каналы : 6 каналов
Расположение каналов : Front: L C R, Side: L R, LFE
Частота : 48,0 КГц
Битовая глубина : 24 бит
Метод сжатия : С потерями
Размер потока : 1,27 Гбайт (12%)
Заголовок : Original
Язык : English
Default : Нет
Forced : Нет

Текст
Идентификатор : 7
Формат : UTF-8
Идентификатор кодека : S_TEXT/UTF8
Идентификатор кодека/Информация : UTF-8 Plain Text
Заголовок : английский
Язык : English
Default : Нет
Forced : Нет



Скачать 15 минут славы через торрент http://s017.radikal.ru/i438/1512/25/2850ab8162ab.png Скачать, смотреть онлайн 15 минут славы бесплантно в хорошем качестве Описание: Эмиль и Олег, приехав в Нью-Йорк по своим бандитским делам, воруют видеокамеру и начинают снимать свои криминальные похождения. ... 10 10 2
Info! Золотая раздача, скачанное не засчитывается.
Торрент: Зарегистрирован [2015-12-22 08:10] · скачан: 55 раз
Статус: √ проверено
Размер: 10.77 GB
Как cкачать? Как скачать 15 минут славы через торрент | UTorrent

% Раздел Тема Автор DL S | L
Фильмы 2001-2005 [ 3.26 GB ] 15 минут славы / 15 Minutes | DUB | BDRip AVC by msltel msltel Скачать
1 | 0

28-11-2019 20:33  

Отключить вcю реклaмy на сайте

    Дорогой пользователь! Огромная просьба, поблагодарите релизера, оцените раздачу и оставьте свои комментарий, если Вы скачали 15 минут славы через торрент бесплатно!!
    Комментировать посты могут только пользователи прошедшие не сложную регистрацию
    Показать сообщения:    


    15 минут славы через торрент
    Скачать бесплатно 15 минут славы
    15 минут славы скачать торрент
    15 минут славы смотреть онлайн
    Cкачать фильм 15 минут славы бесплатно
    15 минут славы скачать торрент в хорошем качестве
    15 минут славы смотреть онлайн бесплатно в хорошем качестве
    Вы не можете начинать темы
    Вы не можете отвечать на сообщения
    Вы не можете редактировать свои сообщения
    Вы не можете удалять свои сообщения
    Вы не можете голосовать в опросах
    Вы не можете прикреплять файлы к сообщениям
    Вы можете скачивать файлы