Ссылка на приватное зеркало нашего сайта всего за 1$. Внимание количество ограничено!!!

2 сезон

iTunes

1 сезон

1

2 сезон

2 сезон

iTunes

1 сезон

RePack

30

Ultimate

ВАЖНО

ИГРА 18+

pack

RePack

MK11
pack

Забери бонус

RePack

jed

!!Акция!!

Alien_Rage

RePack

fifa19

RePack

Assassins Creed: Odyssey

RePack

NEED FOR SPEED™ PAYBACK

4 сезон

9 сезон

Бесстыжие 9 сезон

Все сериалы

все сериалы на PB.wtf

RePack

FAR CRY 5
  

Дуэль / Duel (Стивен Спилберг) [1971, боевик, триллер, детектив, BDRip AVC by msltel] 2 x MVO, AVO pb.wtf

Дуэль через торрент pb.wtf

Размер: 2.95 GB | Добавлен: 4 года 11 мес. назад | Торрент скачан:18 раз
Скачать  

22-12-2015 09:51 Дуэль Скачать торрент  

Название: Дуэль
Оригинальное название: Duel
Год выпуска: 1971
Страна: США
Жанр: боевик, триллер, детектив
Продолжительность: 01:29:14
Перевод: профессиональный многоголосый, авторский

Режиссёр: Стивен Спилберг

В ролях: Дэннис Уивер, Эдди Файрстоун, Джин Динарски, Тим Херберт, Чарльз Сил, Александр Локвуд, Эми Дугласс, Ширли О’Хара, Люсиль Бенсон, Кэри Лофтин, Дейл Ван Сикел, Лу Фриззелл, Джэклин Скотт, Шоун Стайнмен, Дик Уиттингтон

Описание: Сюжет фильма развивается на бескрайней дороге по пустыне через смертельную гонку-дуэль. За легковой автомашиной не просто гонится бензовоз с невидимым водителем, норовя её уничтожить, а как-будто некий рок, как в греческой трагедии, неотступно преследует человека...



Качество: BDRip AVC Сравнение с исходником
Формат: MKV
Видео: MPEG-4 AVC, 2913 Кбит/сек, 1024x554, 23,976 кадра/с
Аудио 1: русский, AC3, 448 kbps, 6 ch, 48 kHz [профессиональный многоголосый, BD CEE]
Аудио 2: русский, AC3, 384 kbps, 6 ch, 48 kHz [профессиональный многоголосый]
Аудио 3: русский, AC3, 448 kbps, 6 ch, 48 kHz [авторский, Василий Горчаков]
Аудио 4: английский, AC3, 448 kbps, 6 ch, 48 kHz [оригинал]
Субтитры 1: русские
Субтитры 2: английские (для слабослышащих)
Общее
Уникальный идентификатор : 250416991244021426246672266205626617154 (0xBC648EE653E3CFA58C4267ADC237CD42)
Полное имя : D:\Video\Дуэль.1971.BDRip.AVC.mkv
Формат : Matroska
Версия формата : Version 4 / Version 2
Размер файла : 2,95 Гбайт
Продолжительность : 1 ч. 29 м.
Общий поток : 4736 Кбит/сек
Дата кодирования : UTC 2015-12-22 03:39:06
Программа кодирования : mkvmerge v8.2.0 ('World of Adventure') 64bit
Библиотека кодирования : libebml v1.3.1 + libmatroska v1.4.2
DURATION : 01:27:31.036000000
NUMBER_OF_FRAMES : 679
NUMBER_OF_BYTES : 20728
_STATISTICS_WRITING_APP : mkvmerge v8.2.0 ('World of Adventure') 64bit
_STATISTICS_WRITING_DATE_UTC : 2015-12-22 03:39:06
_STATISTICS_TAGS : BPS DURATION NUMBER_OF_FRAMES NUMBER_OF_BYTES

Видео
Идентификатор : 1
Формат : AVC
Формат/Информация : Advanced Video Codec
Профиль формата : High@L4.1
Параметр CABAC формата : Да
Параметр ReFrames формата : 9 кадров
Идентификатор кодека : V_MPEG4/ISO/AVC
Продолжительность : 1 ч. 29 м.
Битрейт : 2913 Кбит/сек
Ширина : 1024 пикселя
Высота : 554 пикселя
Соотношение сторон : 1,85:1
Режим частоты кадров : Постоянный
Частота кадров : 23,976 кадра/сек
Цветовое пространство : YUV
Субдискретизация насыщенности : 4:2:0
Битовая глубина : 8 бит
Тип развёртки : Прогрессивная
Бит/(Пиксели*Кадры) : 0.214
Размер потока : 1,82 Гбайт (62%)
Библиотека кодирования : x264 core 146 r2538 121396c
Настройки программы : cabac=1 / ref=9 / deblock=1:-3:-3 / analyse=0x3:0x113 / me=umh / subme=10 / psy=1 / psy_rd=1.00:0.15 / mixed_ref=1 / me_range=32 / chroma_me=1 / trellis=2 / 8x8dct=1 / cqm=0 / deadzone=21,11 / fast_pskip=1 / chroma_qp_offset=-3 / threads=6 / lookahead_threads=1 / sliced_threads=0 / nr=0 / decimate=1 / interlaced=0 / bluray_compat=0 / constrained_intra=0 / bframes=7 / b_pyramid=2 / b_adapt=2 / b_bias=0 / direct=1 / weightb=1 / open_gop=0 / weightp=2 / keyint=230 / keyint_min=23 / scenecut=40 / intra_refresh=0 / rc_lookahead=40 / rc=crf / mbtree=0 / crf=21.5 / qcomp=0.60 / qpmin=0 / qpmax=69 / qpstep=4 / vbv_maxrate=40000 / vbv_bufsize=50000 / crf_max=0.0 / nal_hrd=none / filler=0 / ip_ratio=1.40 / pb_ratio=1.30 / aq=1:1.00
Язык : English
Default : Да
Forced : Нет
DURATION : 01:29:14.308000000
NUMBER_OF_FRAMES : 128375
NUMBER_OF_BYTES : 2011166423
_STATISTICS_WRITING_APP : mkvmerge v8.2.0 ('World of Adventure') 64bit
_STATISTICS_WRITING_DATE_UTC : 2015-12-22 03:39:06
_STATISTICS_TAGS : BPS DURATION NUMBER_OF_FRAMES NUMBER_OF_BYTES

Аудио #1
Идентификатор : 2
Формат : AC-3
Формат/Информация : Audio Coding 3
Расширение режима : CM (complete main)
Параметр Endianness формата : Big
Идентификатор кодека : A_AC3
Продолжительность : 1 ч. 29 м.
Вид битрейта : Постоянный
Битрейт : 448 Кбит/сек
Каналы : 6 каналов
Расположение каналов : Front: L C R, Side: L R, LFE
Частота : 48,0 КГц
Метод сжатия : С потерями
Размер потока : 286 Мбайт (9%)
Заголовок : MVO (BD CEE)
Язык : Russian
Default : Да
Forced : Нет

Аудио #2
Идентификатор : 3
Формат : AC-3
Формат/Информация : Audio Coding 3
Расширение режима : CM (complete main)
Параметр Endianness формата : Big
Идентификатор кодека : A_AC3
Продолжительность : 1 ч. 29 м.
Вид битрейта : Постоянный
Битрейт : 384 Кбит/сек
Каналы : 6 каналов
Расположение каналов : Front: L C R, Side: L R, LFE
Частота : 48,0 КГц
Метод сжатия : С потерями
Размер потока : 245 Мбайт (8%)
Заголовок : MVO
Язык : Russian
Default : Нет
Forced : Нет

Аудио #3
Идентификатор : 4
Формат : AC-3
Формат/Информация : Audio Coding 3
Расширение режима : CM (complete main)
Параметр Endianness формата : Big
Идентификатор кодека : A_AC3
Продолжительность : 1 ч. 29 м.
Вид битрейта : Постоянный
Битрейт : 448 Кбит/сек
Каналы : 6 каналов
Расположение каналов : Front: L C R, Side: L R, LFE
Частота : 48,0 КГц
Метод сжатия : С потерями
Размер потока : 286 Мбайт (9%)
Заголовок : AVO (Василий Горчаков)
Язык : Russian
Default : Нет
Forced : Нет

Аудио #4
Идентификатор : 5
Формат : AC-3
Формат/Информация : Audio Coding 3
Расширение режима : CM (complete main)
Параметр Endianness формата : Big
Идентификатор кодека : A_AC3
Продолжительность : 1 ч. 29 м.
Вид битрейта : Постоянный
Битрейт : 448 Кбит/сек
Каналы : 6 каналов
Расположение каналов : Front: L C R, Side: L R, LFE
Частота : 48,0 КГц
Метод сжатия : С потерями
Размер потока : 286 Мбайт (9%)
Заголовок : Original
Язык : English
Default : Нет
Forced : Нет

Текст #1
Идентификатор : 6
Формат : UTF-8
Идентификатор кодека : S_TEXT/UTF8
Идентификатор кодека/Информация : UTF-8 Plain Text
Заголовок : русский
Язык : Russian
Default : Нет
Forced : Нет

Текст #2
Идентификатор : 7
Формат : UTF-8
Идентификатор кодека : S_TEXT/UTF8
Идентификатор кодека/Информация : UTF-8 Plain Text
Заголовок : английский (для слабослышащих)
Default : Нет
Forced : Нет
pb.wtf



Скачать Дуэль через торрент http://s017.radikal.ru/i404/1512/99/eabb6da68eba.png Скачать фильм Дуэль через торрент бесплантно в хорошем качестве Описание: Сюжет фильма развивается на бескрайней дороге по пустыне через смертельную гонку-дуэль. За легковой автомашиной не просто гонится ... 10 10 4
Info! Серебряная раздача, засчитывается только 50% скачанного.
Торрент: Зарегистрирован [2015-12-22 09:51] · скачан: 18 раз
Статус: √ проверено
Размер: 2.95 GB
Как cкачать? Как скачать Дуэль через торрент | qTorrent

% Раздел Тема Автор DL S | L
Фильмы [HD 720p, 1080p] (Хороший звук DUB, MVO) [ 11.74 GB ] Дуэль / Duel [1971 BDRip 1080p by msltel] 2 x MVO AVO msltel Скачать
1 | 0
Фильмы [HD 720p, 1080p] (Хороший звук DUB, MVO) [ 4.73 GB ] Дуэль / Duel [1971 BDRip 720p by msltel] 2 x MVO AVO msltel Скачать
1 | 0


Последний раз редактировалось: msltel (2015-12-23 07:32), всего редактировалось 1 раз

28-11-2019 20:33  

Отключить всю рекламу на сайте

22-12-2015 10:02 Дуэль Скачать торрент  

Норм.фильмачок.непожалел что смотрел.pb.wtf



    Дорогой пользователь! Огромная просьба, поблагодарите релизера, оцените раздачу и оставьте свои комментарий, если Вы скачали Дуэль через торрент бесплатно! Внесите свою лепту в развитие PiratBit!
    Комментировать посты могут только пользователи прошедшие не сложную регистрацию
    Показать сообщения:    

    Дуэль через торрент
    Скачать бесплатно Дуэль
    Дуэль скачать торрент
    Дуэль смотреть онлайн
    Cкачать фильм Дуэль бесплатно
    Дуэль скачать торрент в хорошем качестве
    Дуэль смотреть онлайн бесплатно в хорошем качестве


    Вы не можете начинать темы
    Вы не можете отвечать на сообщения
    Вы не можете редактировать свои сообщения
    Вы не можете удалять свои сообщения
    Вы не можете голосовать в опросах
    Вы не можете прикреплять файлы к сообщениям
    Вы можете скачивать файлы