Ссылка на приватное зеркало всего за 1$. Внимание количество ограничено!!!

iTunes

1+1

iTunes

мы

MV0

1

WEB-DLRip

Джокер

Пифагор

Ведьмак / The Witcher сериал

iTunes

ПШазам

iTunes

Оно 2

iTunes

30
pack

Вам бонус

ВАЖНО

!!Акция!!

Alien_RageХит недели

RePack

Resident Evil 21

ИГРА 18+

pack

RePack

jed

!!Акция!!

Alien_Rage

RePack

fifa19

RePack

Assassins Creed: Odyssey

RePack

NEED FOR SPEED™ PAYBACK

4 сезон

9 сезон

Бесстыжие 9 сезон

Все сериалы

все сериалы на PB.wtf

RePack

FAR CRY 5
  

С собой не унесёшь / You Can't Take It with You (Фрэнк Капра) [1938, драма, мелодрама, комедия, BDRip AVC by msltel] DVO pb.wtf

С собой не унесёшь через торрент pb.wtf

Размер: 2.44 GB | Добавлен: 4 года 1 мес. назад | Торрент скачан:2 раза
Скачать  

24-12-2015 10:38 С собой не унесёшь Скачать торрент  

Название: С собой не унесёшь
Оригинальное название: You Can't Take It with You
Год выпуска: 1938
Страна: США
Жанр: драма, мелодрама, комедия
Продолжительность: 02:06:20
Перевод: профессиональный двухголосый

Режиссёр: Фрэнк Капра

В ролях: Джин Артур, Лайонел Бэрримор, Джеймс Стюарт, Эдвард Арнольд, Миша Ауэр, Энн Миллер, Спринг Байинтон, Сэмьюэл С. Хайндс, Дональд Мик, Х.Б. Уорнер, Хэллиуэлл Хоббс, Даб Тейлор, Мэри Форбс, Лиллиэн Ярбо, Эдди ’Рочестер’ Андерсон, Кларенс Уилсон, Джозеф Суикерд, Энн Доран, Кристиан Раб, Бодил Росинг, Чарльз Лэйн, Гарри Девенпорт

Описание: Тони — сын одного из самых богатых воротил бизнеса в Нью-Йорке влюблён в Алису — простую девушку секретаря и молодые хотят обвенчаться. Однако эксцентричное поведение родственников и друзей будущей невесты наводит родителей жениха на мысль, что у них с головами не всё в порядке. Их дом — это клуб по интересам «городских сумасшедших». Мать Алисы Пенни пишет пьесы, потому что пишущую машинку когда-то доставили в их дом по ошибке. Её бездарная сестра Эсси грезит балетом и берёт уроки танца у сумасшедшего русского по имени Потап Коленков, который не прочь отобедать за чужой счёт. Папа Алисы с друзьями тратит всё своё время на фейерверки, запуская их прямо в доме. Но больше всех отличается эксцентричным поведением дедушка, который отказывается платить налоги по убеждениям. Весь этот балаган шумит, поёт, танцует и прыгает одновременно под аккомпанемент губной гармоники дедушки и ксилофона мужа Эсси, мешая делать большой бизнес корпорации Энтони П. Кирби — отца Тони...



Качество: BDRip AVC Сравнение с исходником
Формат: MKV
Видео: MPEG-4 AVC, 2262 Кбит/с, 788x576, 23,976 кадра/с
Аудио 1: русский, AC3, 256 kbps, 2 ch, 48 kHz [профессиональный двухголосый, Светла]
Аудио 2: английский, AC3, 192 kbps, 2 ch, 48 kHz [оригинал]
Субтитры: английские
Общее
Уникальный идентификатор : 179370848324374409644852283147447595857 (0x86F1919C78883DEB9101BCEA66DA7351)
Полное имя : D:\Video\С собой не унесёшь.1938.BDRip.AVC.mkv
Формат : Matroska
Версия формата : Version 4 / Version 2
Размер файла : 2,44 Гбайт
Продолжительность : 2 ч. 6 м.
Общий поток : 2765 Кбит/сек
Дата кодирования : UTC 2015-12-23 15:11:49
Программа кодирования : mkvmerge v8.2.0 ('World of Adventure') 64bit
Библиотека кодирования : libebml v1.3.1 + libmatroska v1.4.2
DURATION : 02:04:21.620000000
NUMBER_OF_FRAMES : 1964
NUMBER_OF_BYTES : 83140
_STATISTICS_WRITING_APP : mkvmerge v8.2.0 ('World of Adventure') 64bit
_STATISTICS_WRITING_DATE_UTC : 2015-12-23 15:11:49
_STATISTICS_TAGS : BPS DURATION NUMBER_OF_FRAMES NUMBER_OF_BYTES

Видео
Идентификатор : 1
Формат : AVC
Формат/Информация : Advanced Video Codec
Профиль формата : High@L4.1
Параметр CABAC формата : Да
Параметр ReFrames формата : 9 кадров
Идентификатор кодека : V_MPEG4/ISO/AVC
Продолжительность : 2 ч. 6 м.
Битрейт : 2262 Кбит/сек
Ширина : 788 пикселей
Высота : 576 пикселей
Соотношение сторон : 4:3
Режим частоты кадров : Постоянный
Частота кадров : 23,976 кадра/сек
Цветовое пространство : YUV
Субдискретизация насыщенности : 4:2:0
Битовая глубина : 8 бит
Тип развёртки : Прогрессивная
Бит/(Пиксели*Кадры) : 0.208
Размер потока : 2,00 Гбайт (82%)
Библиотека кодирования : x264 core 146 r2538 121396c
Настройки программы : cabac=1 / ref=9 / deblock=1:-3:-3 / analyse=0x3:0x113 / me=umh / subme=10 / psy=1 / psy_rd=1.00:0.15 / mixed_ref=1 / me_range=32 / chroma_me=1 / trellis=2 / 8x8dct=1 / cqm=0 / deadzone=21,11 / fast_pskip=1 / chroma_qp_offset=-3 / threads=6 / lookahead_threads=1 / sliced_threads=0 / nr=0 / decimate=1 / interlaced=0 / bluray_compat=0 / constrained_intra=0 / bframes=11 / b_pyramid=2 / b_adapt=2 / b_bias=0 / direct=1 / weightb=1 / open_gop=0 / weightp=2 / keyint=230 / keyint_min=23 / scenecut=40 / intra_refresh=0 / rc_lookahead=40 / rc=crf / mbtree=0 / crf=22.0 / qcomp=0.60 / qpmin=0 / qpmax=69 / qpstep=4 / vbv_maxrate=40000 / vbv_bufsize=50000 / crf_max=0.0 / nal_hrd=none / filler=0 / ip_ratio=1.40 / pb_ratio=1.30 / aq=1:1.00
Язык : English
Default : Да
Forced : Нет
DURATION : 02:06:19.572000000
NUMBER_OF_FRAMES : 181728
NUMBER_OF_BYTES : 2192912628
_STATISTICS_WRITING_APP : mkvmerge v8.2.0 ('World of Adventure') 64bit
_STATISTICS_WRITING_DATE_UTC : 2015-12-23 15:11:49
_STATISTICS_TAGS : BPS DURATION NUMBER_OF_FRAMES NUMBER_OF_BYTES

Аудио #1
Идентификатор : 2
Формат : AC-3
Формат/Информация : Audio Coding 3
Расширение режима : CM (complete main)
Параметр Endianness формата : Big
Идентификатор кодека : A_AC3
Продолжительность : 2 ч. 6 м.
Вид битрейта : Постоянный
Битрейт : 256 Кбит/сек
Каналы : 2 канала
Расположение каналов : Front: L R
Частота : 48,0 КГц
Метод сжатия : С потерями
Размер потока : 231 Мбайт (9%)
Заголовок : DVO (Светла)
Язык : Russian
Default : Да
Forced : Нет

Аудио #2
Идентификатор : 3
Формат : AC-3
Формат/Информация : Audio Coding 3
Расширение режима : CM (complete main)
Параметр Endianness формата : Big
Идентификатор кодека : A_AC3
Продолжительность : 2 ч. 6 м.
Вид битрейта : Постоянный
Битрейт : 192 Кбит/сек
Каналы : 2 канала
Расположение каналов : Front: L R
Частота : 48,0 КГц
Метод сжатия : С потерями
Размер потока : 173 Мбайт (7%)
Заголовок : Original
Язык : English
Default : Нет
Forced : Нет

Текст
Идентификатор : 4
Формат : UTF-8
Идентификатор кодека : S_TEXT/UTF8
Идентификатор кодека/Информация : UTF-8 Plain Text
Заголовок : английский
Язык : English
Default : Нет
Forced : Нет
pb.wtf



Скачать С собой не унесёшь через торрент http://s018.radikal.ru/i521/1512/12/29881dd71c9c.png Скачать фильм С собой не унесёшь через торрент бесплантно в хорошем качестве Описание: Тони — сын одного из самых богатых воротил бизнеса в Нью-Йорке влюблён в Алису — простую девушку секретаря и молодые хотят ... 10 10 1
Info! Золотая раздача, скачанное не засчитывается.
Торрент: Зарегистрирован [2015-12-24 10:38] · скачан: 2 раз
Статус: √ проверено
Размер: 2.44 GB
Как cкачать? Как скачать С собой не унесёшь через торрент | qTorrent

28-11-2019 20:33  

Отключить всю рекламу на сайте

    Дорогой пользователь! Огромная просьба, поблагодарите релизера, оцените раздачу и оставьте свои комментарий, если Вы скачали С собой не унесёшь через торрент бесплатно! Внесите свою лепту в развитие PiratBit!
    Комментировать посты могут только пользователи прошедшие не сложную регистрацию
    Показать сообщения:    

    С собой не унесёшь через торрент
    Скачать бесплатно С собой не унесёшь
    С собой не унесёшь скачать торрент
    С собой не унесёшь смотреть онлайн
    Cкачать фильм С собой не унесёшь бесплатно
    С собой не унесёшь скачать торрент в хорошем качестве
    С собой не унесёшь смотреть онлайн бесплатно в хорошем качестве


    Вы не можете начинать темы
    Вы не можете отвечать на сообщения
    Вы не можете редактировать свои сообщения
    Вы не можете удалять свои сообщения
    Вы не можете голосовать в опросах
    Вы не можете прикреплять файлы к сообщениям
    Вы можете скачивать файлы